X   Site Message
(Message will auto close in 2 seconds)

Welcome Guest ( Log In | Register )

> Releases Upload / Добавление релизов

Добавить релиз тут / Click here to add release
Рекомендованные обменники / Recommended file shares

 
Reply to this topicStart new topic
> Mjerim - Torment (2019), Depressive Black Metal
post Feb 12 2019, 14:04:32
Post #1

Serial Uploader
Group Icon
Group: V.I.P
Posts: 33,894
Releases: 32134
From: Lithuania
On Forums: 10 years 8 months
Thanks: 366582 time(s)
Lithuania




*Artist: Mjerim
*Album: Torment
*Year: 2019
*Genre: Depressive Black Metal
*Country: Norway
*Format: mp3@CBR320kbps
*Size: 154MB

Tracklist:
01. Before The Maelstrom, A Moment Of Solemnity Elapsed 04:24
02. Voidfill 07:07
03. A Soul Carved Into Hatred, Fit Only For My Existence 12:35
04. Engulfed In The Forest Of Death 08:10
05. The Tides That Wash Over My Rotting Body, So Quiet And Chaotic 12:09
06. A Triumph At The Hands Of A Dead God 11:44
07. End 11:18
******************************
Total playing time: 1:07:27



Technical info

Input File: 01. before the maelstrom, a moment of solemnity elapsed.mp3
Channels : 2
Sample Rate : 44100
Precision : 16-bit
Duration : 00:04:24.09 = 11646193 samples = 19806.5 CDDA sectors
File Size : 10.7M
Bit Rate : 325k
Sample Encoding: MPEG audio (layer I, II or III)
Comments :
Title=before the maelstrom, a moment of solemnity elapsed
Artist=Mjerim
Album=Torment
Tracknumber=1
Year=2019



Register


Go to the top of the page
  Insert nick Quick quote
+Quote Post

Reply to this topicStart new topic
1 User(s) are reading this topic (1 Guests and 0 Anonymous Users)
0 Members:

 



- Lo-Fi Version Support form
Copyrights and abuse reports form
Time is now: 18th February 2019 - 10:07:00