X   Site Message
(Message will auto close in 2 seconds)

Welcome Guest ( Log In | Register )

> Releases Upload / Добавление релизов

Добавить релиз тут / Click here to add release
Рекомендованные обменники / Recommended file shares

> Emmeleia - I (2019), Atmospheric Black Metal
post Feb 12 2019, 10:48:23
Post #1

Восемь Литров
********
Group: Металариец
Posts: 898
Releases: 752
From: Новороссийск
On Forums: 7 years 9 months
Thanks: 12954 time(s)
Russian Federation




*Artist: Emmeleia
*Album: I
*Year: 2019
*Genre: Atmospheric Black Metal
*Country: Colombia
*Format: mp3@CBR320kbps
*Size: 73MB

Tracklist:
01. Ashen 11:12
02. The Many Names Of Night 10:03
03. We Were Strangers and Pilgrims On The Earth 10:36
******************************
Total playing time: 31:52



Technical info

Input File: 01 Ashen.mp3
Channels : 2
Sample Rate : 44100
Precision : 16-bit
Duration : 00:11:12.14 = 29641550 samples = 50410.8 CDDA sectors
File Size : 26.9M
Bit Rate : 320k
Sample Encoding: MPEG audio (layer I, II or III)
Comments :
Title=Ashen
Artist=Emmeleia
Album=I
Tracknumber=01
Year=2019
Genre=Black Metal



Register


Go to the top of the page
  Insert nick Quick quote
+Quote Post
 
Start new topic
Replies (1 - 3)
post Feb 12 2019, 16:58:52
Post #2

De Mysteriis Dom Sathanas
**************
Group: Металариец
Posts: 3,402
Releases: 63
From: Москва
On Forums: 10 years 7 months
Thanks: 2914 time(s)
Russian Federation


Емеля)


Go to the top of the page
  Insert nick Quick quote
+Quote Post
post Feb 12 2019, 21:13:12    Сейчас играет: Mourning by Morning - Azure Eyes
Post #3

antithesis
**************
Group: Металариец
Posts: 2,565
Releases: 30
From: VRN
On Forums: 8 years 8 months
Thanks: 1427 time(s)
Russian Federation


mirror, pls
Go to the top of the page
  Insert nick Quick quote
+Quote Post
post Feb 12 2019, 21:16:34
Post #4

Правь статус, ####!111
**************
Group: Металариец
Posts: 37,291
Releases: 547
On Forums: 9 years 8 months
Thanks: 28695 time(s)
Russian Federation


Register


Thanks:
Go to the top of the page
  Insert nick Quick quote
+Quote Post

Reply to this topicStart new topic
1 User(s) are reading this topic (1 Guests and 0 Anonymous Users)
0 Members:

 



- Lo-Fi Version Support form
Copyrights and abuse reports form
Time is now: 19th February 2019 - 06:34:15