X   Site Message
(Message will auto close in 2 seconds)

Welcome Guest ( Log In | Register )

> Releases Upload / Добавление релизов

Добавить релиз тут / Click here to add release
Рекомендованные обменники / Recommended file shares

 
Reply to this topicStart new topic
> Negative Slug - Inbreed Retard (Self Humiliation) [ep] (2019), Sludge/Doom Metal
post Feb 12 2019, 08:30:05
Post #1

Аннигилятор пивА
Group Icon
Group: V.I.P
Posts: 52,253
Releases: 16511
From: Koenigsberg - TILZIT
On Forums: 12 years 8 months
Thanks: 357695 time(s)
Russian Federation




*Artist: Negative Slug
*Album: Inbreed Retard (Self Humiliation) [ep]
*Year: 2019
*Genre: Sludge/Doom Metal
*Country: Croatia
*Format: mp3@CBR320kbps
*Size: 34MB

Tracklist:
1. Inbreed Retard (Self Humiliation) 01:26
2. Turd Gobler Reprise 12:38
******************************
Total playing time: 14:04




Extended info
Neven Polšak - Guitars
Marijan Škrinjar - bass
Marko Balenović - drums
Sven Polšak - vocals


Technical info

Input File: Negative Slug - Inbreed Retard (Self Humiliation) - 01 Inbreed Retard (Self Humiliation).mp3
Channels : 2
Sample Rate : 44100
Precision : 16-bit
Duration : 00:01:26.57 = 3817913 samples = 6493.05 CDDA sectors
File Size : 3.60M
Bit Rate : 333k
Sample Encoding: MPEG audio (layer I, II or III)
Comments :
Title=Inbreed Retard (Self Humiliation)
Artist=Negative Slug
Album=Inbreed Retard (Self Humiliation)
Tracknumber=1
Year=2019



Register


Go to the top of the page
  Insert nick Quick quote
+Quote Post

Reply to this topicStart new topic
1 User(s) are reading this topic (1 Guests and 0 Anonymous Users)
0 Members:

 



- Lo-Fi Version Support form
Copyrights and abuse reports form
Time is now: 18th February 2019 - 10:09:46