X   Site Message
(Message will auto close in 2 seconds)

Welcome Guest ( Log In | Register )

> Releases Upload / Добавление релизов

Добавить релиз тут / Click here to add release
Рекомендованные обменники / Recommended file shares

 
Reply to this topicStart new topic
> Sight - Heroica (2019), Sludge/Stoner Metal
post Feb 11 2019, 17:17:04
Post #1

Serial Uploader
Group Icon
Group: V.I.P
Posts: 33,894
Releases: 32134
From: Lithuania
On Forums: 10 years 8 months
Thanks: 366582 time(s)
Lithuania




*Artist: Sight
*Album: Heroica
*Year: 2019
*Genre: Sludge/Stoner Metal
*Country: United States
*Format: mp3@CBR320kbps
*Size: 117MB

Tracklist:
01. The Call
02. Contemplations / Refusal
03. Meeting the Mentor / Crossing of the Threshold
04. Confrontation / Celebration
05. Reflections
06. Finality / Revelation
07. The Return
******************************
Total playing time: 51:09




Technical info

Input File: 02 - Contemplations _ Refusal.mp3
Channels : 2
Sample Rate : 44100
Precision : 16-bit
Duration : 00:07:47.57 = 20619749 samples = 35067.6 CDDA sectors
File Size : 18.7M
Bit Rate : 320k
Sample Encoding: MPEG audio (layer I, II or III)
Comments :
Title=Contemplations / Refusal
Artist=Sight
Album=Heroica
Tracknumber=2
Year=2019
Genre=Metal



Register


Go to the top of the page
  Insert nick Quick quote
+Quote Post

Reply to this topicStart new topic
2 User(s) are reading this topic (2 Guests and 0 Anonymous Users)
0 Members:

 



- Lo-Fi Version Support form
Copyrights and abuse reports form
Time is now: 18th February 2019 - 10:11:19