X   Site Message
(Message will auto close in 2 seconds)

Welcome Guest ( Log In | Register )

> Releases Upload / Добавление релизов

Добавить релиз тут / Click here to add release
Рекомендованные обменники / Recommended file shares

> Fattyú - Hagyaték (2018), Pagan Black Metal
post Feb 11 2019, 15:17:35
Post #1

Serial Uploader
Group Icon
Group: V.I.P
Posts: 33,894
Releases: 32134
From: Lithuania
On Forums: 10 years 8 months
Thanks: 366582 time(s)
Lithuania




*Artist: Fattyú
*Album: Hagyaték
*Year: 2018
*Genre: Pagan Black Metal
*Country: Hungary
*Format: mp3@CBR320kbps
*Size: 59MB

Tracklist:
01. Lidércek Fohásza 03:22
02. Bakkecske Éneke 04:09
03. Garabonciás 05:28
04. Királynőnk 03:56
05. Boszorkányok 03:50
06. Átkozott Föld 02:54
07. Hagyaték 02:01
******************************
Total playing time: 25:40

Preview 1



Technical info

Input File: 02. Bakkecske _®neke.mp3
Channels : 2
Sample Rate : 44100
Precision : 16-bit
Duration : 00:04:10.03 = 11026367 samples = 18752.3 CDDA sectors
File Size : 10.1M
Bit Rate : 324k
Sample Encoding: MPEG audio (layer I, II or III)
Comments :
Title=Bakkecske éneke
Artist=Fattyú
Album=Hagyaték
Tracknumber=2
Year=2019



Register


Go to the top of the page
  Insert nick Quick quote
+Quote Post
 
Start new topic
Replies (1 - 1)
post Feb 12 2019, 14:18:56
Post #2

Правь статус, ####!111
**************
Group: Металариец
Posts: 2,101
Releases: 0
From: Dnipro
On Forums: 10 years 7 months
Thanks: 535 time(s)
Ukraine


Не ожидал такого непотреба от венгерской сцены 13.gif
Go to the top of the page
  Insert nick Quick quote
+Quote Post

Reply to this topicStart new topic
2 User(s) are reading this topic (2 Guests and 0 Anonymous Users)
0 Members:

 



- Lo-Fi Version Support form
Copyrights and abuse reports form
Time is now: 18th February 2019 - 10:10:42