X   Site Message
(Message will auto close in 2 seconds)

Welcome Guest ( Log In | Register )

> Releases Upload / Добавление релизов

Добавить релиз тут / Click here to add release
Рекомендованные обменники / Recommended file shares

 
Reply to this topicStart new topic
> Brandon Burch - Disconnection (2019), Instrumental/Progressive Metal
post Feb 11 2019, 14:28:41
Post #1

Serial Uploader
Group Icon
Group: V.I.P
Posts: 33,894
Releases: 32134
From: Lithuania
On Forums: 10 years 8 months
Thanks: 366582 time(s)
Lithuania




*Artist: Brandon Burch
*Album: Disconnection
*Year: 2019
*Genre: Instrumental/Progressive Metal
*Country: United States
*Format: mp3@CBR320kbps
*Size: 124MB

Tracklist:
01. Digital Footprint
02. Virtual Reality
03. Flawed by Design
04. The Glitch
05. Time Bend
06. Digital Noise
07. Disconnection
08. Arc
09. Recharged
10. New Reality
11. Cognizance
******************************
Total playing time: 54:09



Technical info

Input File: 2 - Virtual Reality.mp3
Channels : 2
Sample Rate : 44100
Precision : 16-bit
Duration : 00:05:27.57 = 14445705 samples = 24567.5 CDDA sectors
File Size : 13.2M
Bit Rate : 322k
Sample Encoding: MPEG audio (layer I, II or III)
Comments :
Title=Virtual Reality
Artist=Brandon Burch
Album=Disconnection
Tracknumber=2
Year=2019
Genre=Metal
Discnumber=1



Register


Go to the top of the page
  Insert nick Quick quote
+Quote Post

Reply to this topicStart new topic
2 User(s) are reading this topic (2 Guests and 0 Anonymous Users)
0 Members:

 



- Lo-Fi Version Support form
Copyrights and abuse reports form
Time is now: 18th February 2019 - 10:11:30