X   Site Message
(Message will auto close in 2 seconds)

Welcome Guest ( Log In | Register )

> Releases Upload / Добавление релизов

Добавить релиз тут / Click here to add release
Рекомендованные обменники / Recommended file shares

 
Reply to this topicStart new topic
> Bray Road - Formation [ep] (2019), Old School Thrash Metal
post Feb 11 2019, 04:24:25
Post #1

Правь статус, ####!111
**************
Group: Металариец
Posts: 16,004
Releases: 10861
From: Г.Харьков
On Forums: 6 years 9 months
Thanks: 180590 time(s)
Unknown




*Artist: Bray Road
*Album: Formation [ep]
*Year: 2019
*Genre: Old School Thrash Metal
*Country: United States
*Format: mp3@CBR320kbps
*Size: 56MB

Tracklist:
1. Sometimes At Night
2. Formation
3. Bloodgutter
4. Ties That Bind
5. Ten Faced Human Waste
6. State Of Execution
******************************
Total playing time: 23:48



Extended info
Nino Nienas Vocals, Guitars
Mike Aschenbrenner Bass
Rob Pearson Guitars
Peter Kissane Drums


Technical info

Input File: 03 - Bloodgutter.mp3
Channels : 2
Sample Rate : 44100
Precision : 16-bit
Duration : 00:05:24.01 = 14289017 samples = 24301 CDDA sectors
File Size : 13.1M
Bit Rate : 323k
Sample Encoding: MPEG audio (layer I, II or III)
Comments :
Title=Bloodgutter
Artist=Bray Road
Album=Formation
Tracknumber=3
Year=2019
Genre=Metal
Discnumber=1



Register


Go to the top of the page
  Insert nick Quick quote
+Quote Post

Reply to this topicStart new topic
1 User(s) are reading this topic (1 Guests and 0 Anonymous Users)
0 Members:

 



- Lo-Fi Version Support form
Copyrights and abuse reports form
Time is now: 18th February 2019 - 10:06:53