X   Site Message
(Message will auto close in 2 seconds)

Welcome Guest ( Log In | Register )

> Releases Upload / Добавление релизов

Добавить релиз тут / Click here to add release
Рекомендованные обменники / Recommended file shares

> Asmodeus - Adamant (2018), Black Metal
post Nov 30 2018, 22:30:29
Post #1

Правь статус, ####!111
**************
Group: Металариец
Posts: 15,312
Releases: 10455
From: Г.Харьков
On Forums: 6 years 7 months
Thanks: 173338 time(s)
Unknown




*Artist: Asmodeus
*Album: Adamant
*Year: 2018
*Genre: Black Metal
*Country: Austria
*Format: mp3@CBR320kbps
*Size: 93MB

Tracklist:
01. Abyssum
02. Pandemonium Revealed
03. Disorder in Balance
04. Inquisition Feuersturm
05. A Forsaken Enchantment
06. Conspiracy Unleashed
07. The Essence of Purity
08. An Ode in Bitterness
09. Relinquishment of a Passion in Blood
10. Delusion
******************************
Total playing time: 43:54



Extended info
Tyr Guitars (1996-present)
See also: ex-Diabolus, ex-Mortal Fear
Desdemon Vocals, Bass (1996-present)
See also: ex-Diabolus, ex-Mortal Fear
Azazel Guitars (2006-2009, 2012-present)
See also: Nonexistence (live), ex-Sanguis, ex-Varulv
Nordger Drums (2010-present)
See also: Drauggard, Obsidian Chamber, Seduced, ex-Nightforest, Horns of Belial, ex-Mortipherus


Technical info

Input File: 03. Disorder in Balance.mp3
Channels : 2
Sample Rate : 44100
Precision : 16-bit
Duration : 00:05:23.70 = 14275346 samples = 24277.8 CDDA sectors
File Size : 13.1M
Bit Rate : 323k
Sample Encoding: MPEG audio (layer I, II or III)
Comments :
Title=Disorder in Balance
Artist=Asmodeus
Album=Adamant
Tracknumber=3
Year=2018
Discnumber=1



Register


Go to the top of the page
  Insert nick Quick quote
+Quote Post
 
Start new topic
Replies (1 - 2)
post Dec 6 2018, 03:16:58
Post #2

Два Литра
**
Group: Завсегдатай
Posts: 152
Releases: 0
On Forums: 9 years 10 months
Thanks: 122 time(s)
Ukraine


Marduk+Dark Funeral worship.
Go to the top of the page
  Insert nick Quick quote
+Quote Post
post Dec 6 2018, 17:26:33
Post #3

Правь статус, ####!111
**************
Group: Металариец
Posts: 6,133
Releases: 164
From: URUGUAY
On Forums: 12 years 2 months
Thanks: 15130 time(s)
Uruguay


Mp3, CBR 320 kbps [Flac rip]
Register


Thanks:
Go to the top of the page
  Insert nick Quick quote
+Quote Post

Reply to this topicStart new topic
2 User(s) are reading this topic (2 Guests and 0 Anonymous Users)
0 Members:

 



- Lo-Fi Version Support form
Copyrights and abuse reports form
Time is now: 12th December 2018 - 18:12:41