X   Site Message
(Message will auto close in 2 seconds)

Welcome Guest ( Log In | Register )

> Bekëth Nexëhmü - De Svartas Urblod [demo] (2015), Black Metal
post Apr 3 2016, 15:19:50
Post #1

Маньяк
**********
Group: Металариец
Posts: 1,498
Releases: 23
From: Spain
On Forums: 11 years 3 months
Thanks: 1160 time(s)
Spain




*Artist: Bekëth Nexëhmü
*Album: De Svartas Urblod [demo]
*Year: 2015
*Genre: Black Metal
*Country: Sweden
*Format: mp3@CBR320kbps
*Size: 63MB

Tracklist:
1. Herrskapets Välde 01:24
2. Bestens Urblod 07:44
3. Ragnaröks Ankomst 07:13
4. Dunklets Svarta Urkall 07:15
5. Dödens Hand 03:57
******************************
Total playing time: 27:33

Extended info
Courtesy of EmptinessCycle.
http://blackmetalyesteryear.blogspot.com.es/
More demos to come smile3.gif


Technical info

Input File: 01. Herrskapets Välde.mp3
Channels : 2
Sample Rate : 44100
Precision : 16-bit
Duration : 00:01:22.40 = 3633884 samples = 6180.07 CDDA sectors
File Size : 3.35M
Bit Rate : 325k
Sample Encoding: MPEG audio (layer I, II or III)
Comments :
Title=Herrskapets Välde
Artist=BekГ«th NexГ«hmГј
Album=De Svartas Urblod Demo
Tracknumber=1
Year=2015
Genre=Black Metal



Register


Go to the top of the page
  Insert nick Quick quote
+Quote Post
 
Start new topic
Replies (1 - 3)
post Apr 3 2016, 17:50:31
Post #2

filed under desecration
Group Icon
Group: S-moderation team
Posts: 8,699
Releases: 1643
On Forums: 10 years 4 months
Thanks: 99436 time(s)
Unknown


Register


Go to the top of the page
  Insert nick Quick quote
+Quote Post
post Apr 6 2016, 11:58:54
Post #3

Четыре Литра
****
Group: Металариец
Posts: 334
Releases: 10
From: Подольск
On Forums: 9 years 6 months
Thanks: 380 time(s)
Russian Federation


Атмосферная сырятина. Я не эксперт, но по сравнению с De dunkla herrarna эта демка быстрее и хаотичнее, что ли. И акустики не хватает.
И после плясового блека как-то не идёт. А так - хорошо, конечно.

p.s. А когда на Руси появится банда, где много "ё"? Дёмён Ёбёнть, например, какой-нибудь. Чёрнёй Ёпрст.


Go to the top of the page
  Insert nick Quick quote
+Quote Post
post Dec 6 2018, 17:47:16
Post #4

добрый мизантроп
***********
Group: Металариец
Posts: 1,624
Releases: 0
From: Минск
On Forums: 8 years 4 weeks
Thanks: 487 time(s)
Madagascar


preview
Register
Go to the top of the page
  Insert nick Quick quote
+Quote Post

Reply to this topicStart new topic
2 User(s) are reading this topic (2 Guests and 0 Anonymous Users)
0 Members:

 



- Lo-Fi Version Support form
Copyrights and abuse reports form
Time is now: 13th December 2018 - 17:20:34