X   Site Message
(Message will auto close in 2 seconds)

Welcome Guest ( Log In | Register )

> Releases Upload / Добавление релизов

Добавить релиз тут / Click here to add release
Рекомендованные обменники / Recommended file shares

 
Reply to this topicStart new topic
> Gorilla Deathtrap - Spiegelwelten (2018), Instrumental/Psychedelic Stoner/Doom Metal
post Feb 12 2019, 12:37:42
Post #1

Serial Uploader
Group Icon
Group: V.I.P
Posts: 33,894
Releases: 32134
From: Lithuania
On Forums: 10 years 8 months
Thanks: 366582 time(s)
Lithuania




*Artist: Gorilla Deathtrap
*Album: Spiegelwelten
*Year: 2018
*Genre: Instrumental/Psychedelic Stoner/Doom Metal
*Country: Germany
*Format: mp3@CBR320kbps
*Size: 91MB

Tracklist:
01. Eaten by Nothing 05:21
02. Midas 05:40
03. Powernap 08:47
04. Funeral Fistfight 02:19
05. The Bold Bore Room 07:17
06. Spiegelwelt in Finsternis 02:34
07. Nightmare Corridor 06:15
******************************
Total playing time: 38:13





Technical info

Input File: 02 Midas.mp3
Channels : 2
Sample Rate : 44100
Precision : 16-bit
Duration : 00:05:40.40 = 15011508 samples = 25529.8 CDDA sectors
File Size : 13.9M
Bit Rate : 327k
Sample Encoding: MPEG audio (layer I, II or III)
Comments :
Title=Midas
Artist=Gorilla Deathtrap
Album=Spiegelwelten
Tracknumber=2/7
Year=2018
Genre=Metal
Discnumber=1/1



Register


Go to the top of the page
  Insert nick Quick quote
+Quote Post

Reply to this topicStart new topic
2 User(s) are reading this topic (2 Guests and 0 Anonymous Users)
0 Members:

 



- Lo-Fi Version Support form
Copyrights and abuse reports form
Time is now: 18th February 2019 - 10:09:56