X   Site Message
(Message will auto close in 2 seconds)

Welcome Guest ( Log In | Register )

> 

Здесь релизы с живыми прямыми ссылками на lossless

> Morbid Angel - Kingdoms Disdained (2017), Death Metal
post Nov 30 2017, 11:19:51
Post #1

Аннигилятор пивА
Group Icon
Group: V.I.P
Posts: 51,572
Releases: 16203
From: Koenigsberg - TILZIT
On Forums: 12 years 7 months
Thanks: 352465 time(s)
Russian Federation




*Artist: Morbid Angel
*Album: Kingdoms Disdained
*Year: 2017
*Genre: Death Metal
*Country: United States
*Format: mp3@CBR320kbps
*Size: 110MB

Tracklist:
01. Piles of Little Arms
02. D.E.A.D.
03. Garden of Disdain
04. The Righteous Voice
05. Architect and Iconoclast
06. Paradigms Warped
07. The Pillars Crumbling
08. For No Master
09. Declaring New Law (Secret Hell)
10. From the Hand of Kings
11. The Fall of Idols
******************************
Total playing time: 47:49



Extended info
Trey Azagthoth - Guitars, Keyboards (1983-present)
Steve Tucker - Vocals, Bass (1997-2001, 2003-2004, 2015-present) See also: Warfather, ex-Ceremony, ex-Nader Sadek, ex-Nile (live), ex-UnderCurrent
Scott Fuller - Drums (2017-present) See also: Annihilated, Errorgeist, Incinerated Divinity, Plaguereaper, ex-Abysmal Dawn, ex-Havok, ex-Sentinel Beast, ex-Skitzo, ex-Jungle Rot (live), ex-Acridious
Dan Vadim Von - Guitars (2017-present) See also: VadimVon, ex-Wretch


Technical info

Input File: 01 Piles Of Little Arms .mp3
Channels : 2
Sample Rate : 44100
Precision : 16-bit
Duration : 00:03:44.33 = 9893129 samples = 16825 CDDA sectors
File Size : 9.06M
Bit Rate : 323k
Sample Encoding: MPEG audio (layer I, II or III)
Comments :
Title=Piles Of Little Arms
Artist=Morbid Angel
Album=Kingdoms Disdained
Tracknumber=1
Year=2017
Genre=Rock



Register


Thanks:
(162) 6666666, 666days, acerbus, ad73, AHBAnep, Alexis The Best, AlexStorm, Amsterdam, andreikun, Aresson, asphyx5, avkruchinin, babanguida, Ballisargon, Beazth, begemoth79, berserkr, biroutios, Bitchkiller, Black Cat, BlaspherionFLUL, Bloodn Lord, boby9052, BrutalHero, bulldozer9, Buregon, cancer1974, caro, Cartman223, Cephalic, Coroner, d0zer, DarkHorde, ddx1, Deada, demonosz, Desert Eagle, Dio001, djsema4, DowntownGsus, DrkKnight, Emhyr var Emreis, Femto, Filosofem91, Firefrost, futilitarian, fylopaloma, Galactus, Golfzilla, Golodomor, grobator, gwar, Haunting, heinz88, Henmik, Hroedmar, igore2911, Immolator, Infidel, infiltrator, Ingward, JAWA, John Beak, jorgeguldur, judaz, Jurmagund, Kasper969, Kazoth, kimkayoung, Konst, KVRT, kyrkovisan, lafuma, legion01, LEGION69, Leshiy666, leviathanticus, LightWizard, lldma, Lord Noctua, mad, maxmagmas, MeathookSeed, Megaden, metalfanatic666, METALHUNTER, Mist13Signifier, MMMMM, Moonshtook, Mplast, nadin85, Nattfodd, necrofag, necromasochist, nygga, Occultas, Old Vyaine, pensiata, Phlebotomized, postal67, princeshr, Proteus_666, psxxx, rabindranad, Radogast, realexxx75, recber, RENыч, Rosen, RotAnus, russ777, samokot, SAPOGi, SatanicPanzer, satanist666, Scuns, Semargl2010, ShmiT, smes, soulskinner681, sperminator, StabWound, StoneTemple, Strangler, stub888, Swastika, SyncestrA, syntexid, tamerz, TeamatSE, Terrorizer, THROWER666, Thunderbird, Tino, Torlof, Tristram, troll_swamp, Tular, Typhoid, Unscarted, VALERY, varlam4, varnack, Victim of fate, vir2al, Visitor, vo140182fav, vov7609, vyacheslav, wn129aa, wolverine, wtk.412, WX419, xiuhcoatl075, Xor, xska, yuratroll, ZambuL, Zenial, Ветеринар, Луч, Язва,
Go to the top of the page
  Insert nick Quick quote
+Quote Post
19 Pages V  « < 17 18 19  
Start new topic
Replies (540 - 541)
post Jan 11 2019, 20:37:01
Post #541

Три Литра
***
Group: Завсегдатай
Posts: 276
Releases: 0
From: Somewhere along nowhere
On Forums: 4 months 4 weeks
Thanks: 175 time(s)
United States Minor Outlying Islands


ЦИТАТА(6666666 @ Jan 11 2019, 21:34:08) *
Одно из немногих, что можно похвалить.


В первом классе не учили давать полный ответ?)
Это стоит делать, чтобы быть правильно понятым.
И в чем пристрастие к прорезиненным трусам?
Go to the top of the page
  Insert nick Quick quote
+Quote Post
post Jan 11 2019, 23:32:35
Post #542

Правь статус, ####!111
**************
Group: Металариец
Posts: 2,052
Releases: 0
From: Buffalo
On Forums: 9 years 9 months
Thanks: 1161 time(s)
United States


ЦИТАТА(quicksand @ Jan 11 2019, 21:53:37) *
Единственное, возможно, опрометчивое решение, из-за которого многие не могут вникнуть в его сущность -
это запись в лаборатории Рутана 22.gif

Не, с этим тоже все хорошо. По мне так лучший дез метал альбом того года, когда он вышел.
Go to the top of the page
  Insert nick Quick quote
+Quote Post

19 Pages V  « < 17 18 19
Reply to this topicStart new topic
2 User(s) are reading this topic (2 Guests and 0 Anonymous Users)
0 Members:

 



- Lo-Fi Version Support form
Copyrights and abuse reports form
Time is now: 23rd January 2019 - 02:46:25