X   Site Message
(Message will auto close in 2 seconds)

Welcome Guest ( Log In | Register )

> Releases Upload / Добавление релизов

Добавить релиз тут / Click here to add release
Рекомендованные обменники / Recommended file shares

> Negative Slug - Bliss Of Corpse [ep] (2018), Sludge/Doom Metal
post Feb 12 2019, 08:29:23
Post #1

Аннигилятор пивА
Group Icon
Group: V.I.P
Posts: 52,270
Releases: 16518
From: Koenigsberg - TILZIT
On Forums: 12 years 8 months
Thanks: 357845 time(s)
Russian Federation




*Artist: Negative Slug
*Album: Bliss Of Corpse [ep]
*Year: 2018
*Genre: Sludge/Doom Metal
*Country: Croatia
*Format: mp3@CBR320kbps
*Size: 42MB

Tracklist:
1. Bliss of Corpse 03:38
2. Slugs & Snails 02:17
3. Rotten Existence 02:22
4. Grave Crime 04:55
5. Tumor 04:53
******************************
Total playing time: 18:05




Extended info
Neven Polsak - Guitar
Marijan Skrinjar - Bass
Marko Balenovic - Drums
Sven Polsak - Vocals


Technical info

Input File: Negative Slug - Bliss Of Corpse - 02 Slugs & Snails.mp3
Channels : 2
Sample Rate : 44100
Precision : 16-bit
Duration : 00:02:17.18 = 6049462 samples = 10288.2 CDDA sectors
File Size : 5.58M
Bit Rate : 326k
Sample Encoding: MPEG audio (layer I, II or III)
Comments :
Title=Slugs & Snails
Artist=Negative Slug
Album=Bliss Of Corpse
Tracknumber=2
Year=2018



Register


Go to the top of the page
  Insert nick Quick quote
+Quote Post
 
Start new topic
Replies (1 - 2)
post Feb 12 2019, 16:53:22
Post #2

Правь статус, ####!111
**************
Group: Металариец
Posts: 37,291
Releases: 547
On Forums: 9 years 8 months
Thanks: 28695 time(s)
Russian Federation


Музыка то хорошая, но вот этот воКАЛ 22.gif
Go to the top of the page
  Insert nick Quick quote
+Quote Post
post Feb 12 2019, 20:39:20
Post #3

Три Литра
***
Group: Завсегдатай
Posts: 235
Releases: 0
From: Kyiv
On Forums: 6 years 10 months
Thanks: 86 time(s)
Ukraine


Класс. Ядок. То что надо.
Go to the top of the page
  Insert nick Quick quote
+Quote Post

Reply to this topicStart new topic
2 User(s) are reading this topic (2 Guests and 0 Anonymous Users)
0 Members:

 



- Lo-Fi Version Support form
Copyrights and abuse reports form
Time is now: 19th February 2019 - 06:37:40