X   Site Message
(Message will auto close in 2 seconds)

Welcome Guest ( Log In | Register )

> Releases Upload / Добавление релизов

Добавить релиз тут / Click here to add release
Рекомендованные обменники / Recommended file shares

> Autumn's Mourning - Gotland [ep] (2019), Symphonic Doom/Death/Folk Metal
post Jan 11 2019, 09:43:33
Post #1

Аннигилятор пивА
Group Icon
Group: V.I.P
Posts: 51,572
Releases: 16203
From: Koenigsberg - TILZIT
On Forums: 12 years 7 months
Thanks: 352465 time(s)
Russian Federation




*Artist: Autumn's Mourning
*Album: Gotland [ep]
*Year: 2019
*Genre: Symphonic Doom/Death/Folk Metal
*Country: Sweden
*Format: mp3@CBR320kbps
*Size: 59MB

Tracklist:
01. Glades of Golden Light 01:15
02. The Morning Mist 06:37
03. Gotland 16:22
******************************
Total playing time: 24:14





Extended info
Vox: Patrik Blomberg
Lead / Rhythm Guitars: Danjel May
Drums: Jonathan Persson
Bass: Justin Biggs
Johan Aldgård: Guitars (session)
Anders Östergren, Christoffer Holm & Patrik Blomberg, Choirs.



Technical info

Input File: 02. The Morning Mist.mp3
Channels : 2
Sample Rate : 44100
Precision : 16-bit
Duration : 00:06:37.14 = 17513786 samples = 29785.4 CDDA sectors
File Size : 16.6M
Bit Rate : 335k
Sample Encoding: MPEG audio (layer I, II or III)
Comments :
Title=The Morning Mist
Artist=Autumn's Mourning
Album=Gotland
Tracknumber=2/3
Year=2019
Genre=Metal
Discnumber=1/1



Register


Go to the top of the page
  Insert nick Quick quote
+Quote Post
 
Start new topic
Replies (1 - 3)
post Jan 11 2019, 13:40:09
Post #2

Пять Литров
*****
Group: Металариец
Posts: 480
Releases: 5
From: Ивантеевка, Московская область
On Forums: 11 years 1 month
Thanks: 156 time(s)
Russian Federation


Насилу дослушал. Какой-то эпик фолк. Мы классные парни, потомки викингов, можем петь хором "о-о-о-о-о-о" у костра и валькирии подпевают нам из Вальхаллы и т.д. Но т.к. нифига не понимаю в вашем металле, то может быть это и симфодум.


Thanks:
(1) krotovich,
Go to the top of the page
  Insert nick Quick quote
+Quote Post
post Jan 11 2019, 16:20:22
Post #3

Шесть Литров
******
Group: Металариец
Posts: 639
Releases: 0
From: Черкассы
On Forums: 7 years 1 month
Thanks: 87 time(s)
Ukraine


ЦИТАТА(Ice Gnoll @ 11th January 2019 - 14:40:09) *
может быть это и симфодум

Symphonic Folk Metal
Go to the top of the page
  Insert nick Quick quote
+Quote Post
post Jan 13 2019, 11:10:37
Post #4

Маньяк
**********
Group: Металариец
Posts: 1,151
Releases: 0
From: Russian Federation - St.Petersburg
On Forums: 9 years 10 months
Thanks: 255 time(s)
Russian Federation


Красивый музон, в стиле винтерсюн! 20.gif Жаль, что всего лишь еп-шник...


Thanks:
(1) krotovich,
Go to the top of the page
  Insert nick Quick quote
+Quote Post

Reply to this topicStart new topic
2 User(s) are reading this topic (2 Guests and 0 Anonymous Users)
0 Members:

 



- Lo-Fi Version Support form
Copyrights and abuse reports form
Time is now: 23rd January 2019 - 02:46:15