X   Site Message
(Message will auto close in 2 seconds)

Welcome Guest ( Log In | Register )

> Releases Upload / Добавление релизов

Добавить релиз тут / Click here to add release
Рекомендованные обменники / Recommended file shares

> Wulfaz - Eriks Kumbl [ep] (2019), Black Metal
post Jan 12 2019, 17:44:26
Post #1

Аннигилятор пивА
Group Icon
Group: V.I.P
Posts: 51,474
Releases: 16166
From: Koenigsberg - TILZIT
On Forums: 12 years 7 months
Thanks: 351585 time(s)
Russian Federation




*Artist: Wulfaz
*Album: Eriks Kumbl [ep]
*Year: 2019
*Genre: Black Metal
*Country: Denmark
*Format: mp3@CBR320kbps
*Size: 27MB

Tracklist:
1. Hærulf 02:38
2. Døden ved Hedeby 04:58
3. Eriks Kumbl 03:13
******************************
Total playing time: 10:49




Extended info
Wulfaz is a Danish duo who play raw, punky but melodic black metal
If early Enslaved and Taake got together and decided to play d-beat punk.
Lyrics about Viking Age rituals and runic inscriptions.


Technical info

Input File: Wulfaz - Eriks kumbl - 01 Hærulf.mp3
Channels : 2
Sample Rate : 44100
Precision : 16-bit
Duration : 00:02:38.70 = 6998758 samples = 11902.6 CDDA sectors
File Size : 6.62M
Bit Rate : 334k
Sample Encoding: MPEG audio (layer I, II or III)
Comments :
Title=Hærulf
Artist=Wulfaz
Album=Eriks kumbl
Tracknumber=1
Year=2019



Register


Go to the top of the page
  Insert nick Quick quote
+Quote Post
 
Start new topic
Replies (1 - 1)
post Jan 12 2019, 19:24:22
Post #2

Аннигилятор пивА
Group Icon
Group: V.I.P
Posts: 51,474
Releases: 16166
From: Koenigsberg - TILZIT
On Forums: 12 years 7 months
Thanks: 351585 time(s)
Russian Federation


MIRROR
Register


Go to the top of the page
  Insert nick Quick quote
+Quote Post

Reply to this topicStart new topic
3 User(s) are reading this topic (3 Guests and 0 Anonymous Users)
0 Members:

 



- Lo-Fi Version Support form
Copyrights and abuse reports form
Time is now: 19th January 2019 - 10:02:50