X   Site Message
(Message will auto close in 2 seconds)

Welcome Guest ( Log In | Register )

> Releases Upload / Добавление релизов

Добавить релиз тут / Click here to add release
Рекомендованные обменники / Recommended file shares

 
Reply to this topicStart new topic
> Tombtoker - Coffin Texts [ep] (2018), Sludge/Doom Metal
post Dec 6 2018, 17:32:26
Post #1

Аннигилятор пивА
Group Icon
Group: V.I.P
Posts: 50,768
Releases: 15822
From: Koenigsberg - TILZIT
On Forums: 12 years 6 months
Thanks: 345114 time(s)
Russian Federation




*Artist: Tombtoker
*Album: Coffin Texts [ep]
*Year: 2018
*Genre: Sludge/Doom Metal
*Country: United States
*Format: mp3@CBR320kbps
*Size: 45MB

Tracklist:
01. Warfare Revolution
02. Robo Cujo
03. Stenchsquatch
04. Blood Freak
05. Globster
******************************
Total playing time: 20:37



Extended info
Mark Kuczak | Vocals
Brandon Laing | Guitar
Nick Baldwin | Guitar
Dave Hagen | Bass
Bret Lanahan | Drums



Technical info

Input File: 02. Robo Cujo.mp3
Channels : 2
Sample Rate : 44100
Precision : 16-bit
Duration : 00:04:35.48 = 12148624 samples = 20660.9 CDDA sectors
File Size : 11.2M
Bit Rate : 324k
Sample Encoding: MPEG audio (layer I, II or III)
Comments :
Title=Robo Cujo
Artist=Tombtoker
Album=Coffin Texts
Tracknumber=2
Year=2018
Discnumber=1



Register


Go to the top of the page
  Insert nick Quick quote
+Quote Post

Reply to this topicStart new topic
2 User(s) are reading this topic (2 Guests and 0 Anonymous Users)
0 Members:

 



- Lo-Fi Version Support form
Copyrights and abuse reports form
Time is now: 12th December 2018 - 18:13:30