X   Site Message
(Message will auto close in 2 seconds)

Welcome Guest ( Log In | Register )

> Releases Upload / Добавление релизов

Добавить релиз тут / Click here to add release
Рекомендованные обменники / Recommended file shares

> Violblast - Theater Of Despair (2019), Thrash Metal
post Jan 10 2019, 11:09:50
Post #1

Serial Uploader
Group Icon
Group: V.I.P
Posts: 33,602
Releases: 31862
From: Lithuania
On Forums: 10 years 7 months
Thanks: 363642 time(s)
Lithuania




*Artist: Violblast
*Album: Theater Of Despair
*Year: 2019
*Genre: Thrash Metal
*Country: Spain
*Format: mp3@CBR320kbps
*Size: 103MB

Tracklist:
01. Trivialization of Murder
02. Theater of Despair
03. New Orphans Elegy
04. Martyrs Without a Cause
05. Secret Reality
06. The Shadow No Longer Rests
07. Prevail
08. Broken Scepter
09. Painless
10. Scopaesthesic
******************************
Total playing time: 41:24



Technical info

Input File: 02 Theater of Despair.mp3
Channels : 2
Sample Rate : 44100
Precision : 16-bit
Duration : 00:03:21.36 = 8880064 samples = 15102.1 CDDA sectors
File Size : 8.85M
Bit Rate : 351k
Sample Encoding: MPEG audio (layer I, II or III)
Comments :
Title=Theater of Despair
Artist=Violblast
Album=Theater of Despair
Tracknumber=2/10
Year=2019
Genre=Thrash Metal
Discnumber=1/1



Register

Register


Go to the top of the page
  Insert nick Quick quote
+Quote Post
 
Start new topic
Replies (1 - 6)
post Jan 10 2019, 11:51:26
Post #2

Аннигилятор пивА
Group Icon
Group: V.I.P
Posts: 51,572
Releases: 16203
From: Koenigsberg - TILZIT
On Forums: 12 years 7 months
Thanks: 352465 time(s)
Russian Federation


MIRROR
Register





Thanks:
Go to the top of the page
  Insert nick Quick quote
+Quote Post
post Jan 10 2019, 12:00:42
Post #3

Правь статус, ####!111
**************
Group: Металариец
Posts: 15,736
Releases: 10687
From: Г.Харьков
On Forums: 6 years 8 months
Thanks: 177725 time(s)
Unknown


FLAC-Rip 320 93mb
Register

Register

Register

FLAC Tracks 316mb
Register

Register

Register





Go to the top of the page
  Insert nick Quick quote
+Quote Post
post Jan 10 2019, 12:14:33
Post #4

Два Литра
**
Group: Завсегдатай
Posts: 196
Releases: 0
From: Минск
On Forums: 7 years 8 months
Thanks: 125 time(s)
Russian Federation


Достойно, достойно. Классный звук, интересные рифы. Казалось бы - сложно что-то сделать незаезженное и интересное в данном стиле. Ан нет. Конкретно в стиль укладываются, без лишних модных перделок, а слушается свежо и не скучно. Пошел качать их "Conflict" от 2016-го.


Thanks:
Go to the top of the page
  Insert nick Quick quote
+Quote Post
post Jan 10 2019, 20:28:53
Post #5

MDM-Thrash Metal
**************
Group: Металариец
Posts: 7,420
Releases: 425
From: Одесса
On Forums: 11 years 5 months
Thanks: 14049 time(s)
Ukraine


Если на дебютной работе Слеером просто, не то чтобы веяло за версту, а просто-напросто была полнейшая калька, то на этом альбоме уже материал совершенно с другой подачей и со своими идеями.
Хороший, добротный и качественный треш! metaler.gif


Thanks:
Go to the top of the page
  Insert nick Quick quote
+Quote Post
post Jan 11 2019, 01:00:30
Post #6

Dr.
**************
Group: Металариец
Posts: 5,275
Releases: 0
From: Primorye.ru
On Forums: 7 years 9 months
Thanks: 1061 time(s)
Russian Federation


Высокий профессиональный уровень исполнения, не устаю наслаждаться коллективом с предыдущих работ!


Thanks:
Go to the top of the page
  Insert nick Quick quote
+Quote Post
post Jan 11 2019, 19:47:09
Post #7

Сектант технодро4чер
**************
Group: Металариец
Posts: 5,346
Releases: 143
From: Тимчасово окупована територія
On Forums: 10 years 5 months
Thanks: 5520 time(s)
Ukraine


Не слушал, но одобряю 9.gif


Thanks:
Go to the top of the page
  Insert nick Quick quote
+Quote Post

Reply to this topicStart new topic
2 User(s) are reading this topic (2 Guests and 0 Anonymous Users)
0 Members:

 



- Lo-Fi Version Support form
Copyrights and abuse reports form
Time is now: 23rd January 2019 - 02:58:00