X   Site Message
(Message will auto close in 2 seconds)

Welcome Guest ( Log In | Register )

> Releases Upload / Добавление релизов

Добавить релиз тут / Click here to add release
Рекомендованные обменники / Recommended file shares

 
Reply to this topicStart new topic
> Top Sekret - Piggy Op (2018), Goregrind
post Feb 11 2019, 10:36:19
Post #1

Восемь Литров
********
Group: Металариец
Posts: 826
Releases: 296
From: Саранск
On Forums: 7 years 9 months
Thanks: 2257 time(s)
Russian Federation




*Artist: Top Sekret
*Album: Piggy Op
*Year: 2018
*Genre: Goregrind
*Country: Czech Republic
*Format: mp3@CBR256kbps
*Size: 37MB

Tracklist:
1. Onany boy
2. Foot Fetish
3. Piggy Op
4. Do vany sral
5. Anulu
6. Morbinudus
7. Mister Hoven
8. Opići
9. Ćoko voko
10. Dildo
11. Zanet nadvarlat
12. Ześrane Monterky
13. Somar
14. Vymerdej si prdel hovnem
******************************
Total playing time: 20:13



Technical info

Input File: 06. Moribundus.mp3
Channels : 2
Sample Rate : 44100
Precision : 16-bit
Duration : 00:01:32.03 = 4058655 samples = 6902.47 CDDA sectors
File Size : 3.00M
Bit Rate : 261k
Sample Encoding: MPEG audio (layer I, II or III)
Comments :
Title=Moribundus
Artist=Top Sekret
Album=Piggy Op
Tracknumber=6/14
Year=2018
Genre=Death Metal, Goregrind



Register


Go to the top of the page
  Insert nick Quick quote
+Quote Post

Reply to this topicStart new topic
3 User(s) are reading this topic (3 Guests and 0 Anonymous Users)
0 Members:

 



- Lo-Fi Version Support form
Copyrights and abuse reports form
Time is now: 18th February 2019 - 10:11:22