X   Site Message
(Message will auto close in 2 seconds)

Welcome Guest ( Log In | Register )

> Releases Upload / Добавление релизов

Добавить релиз тут / Click here to add release
Рекомендованные обменники / Recommended file shares

> Hussar - No Victor [ep] (2019), Death/Doom Metal
post Jan 12 2019, 17:55:28
Post #1

Мегаманьяк
***********
Group: Металариец
Posts: 1,527
Releases: 1309
From: Одесса
On Forums: 10 years 7 months
Thanks: 10336 time(s)
Ukraine




*Artist: Hussar
*Album: No Victor [ep]
*Year: 2019
*Genre: Death/Doom Metal
*Country: Canada
*Format: mp3@CBR320kbps
*Size: 41MB

Tracklist:
1. Derranged Frequencies 02:21
2. Endless Thundering of Shells Overhead 06:01
3. Devouring Slow Mist 08:55
******************************
Total playing time: 17:17



Extended info
Line - up:

Shane Mackenzie - Bass
Nate Reynolds-Welsh - Drums
Vadim Balanyuk - Guitars, Vocals (Traitor)



Technical info

Input File: 03. Devouring Slow Mist.mp3
Channels : 2
Sample Rate : 48000
Precision : 16-bit
Duration : 00:08:55.44 = 25701264 samples ~ 40158.2 CDDA sectors
File Size : 21.4M
Bit Rate : 320k
Sample Encoding: MPEG audio (layer I, II or III)
Comments :
Title=Devouring Slow Mist
Artist=Hussar
Album=No Victor (EP)
Tracknumber=3
Year=2019
Genre=Death / Doom Metal



Register


Go to the top of the page
  Insert nick Quick quote
+Quote Post
 
Start new topic
Replies (1 - 1)
post Jan 14 2019, 17:47:43
Post #2

Мегаманьяк
***********
Group: Металариец
Posts: 1,979
Releases: 0
From: Dnipro
On Forums: 10 years 6 months
Thanks: 506 time(s)
Ukraine


Канадские гусары в кирасах Death/Doom Metal заиграли? 19.gif
Go to the top of the page
  Insert nick Quick quote
+Quote Post

Reply to this topicStart new topic
2 User(s) are reading this topic (2 Guests and 0 Anonymous Users)
0 Members:

 



- Lo-Fi Version Support form
Copyrights and abuse reports form
Time is now: 19th January 2019 - 11:51:35