X   Site Message
(Message will auto close in 2 seconds)

Welcome Guest ( Log In | Register )

> Releases Upload / Добавление релизов

Добавить релиз тут / Click here to add release
Рекомендованные обменники / Recommended file shares

> Sarastus - Enter The Necropolis (2019), Black Metal
post Feb 8 2019, 20:05:03
Post #1

Правь статус, ####!111
**************
Group: Металариец
Posts: 16,005
Releases: 10862
From: Г.Харьков
On Forums: 6 years 9 months
Thanks: 180727 time(s)
Unknown




*Artist: Sarastus
*Album: Enter The Necropolis
*Year: 2019
*Genre: Black Metal
*Country: Finland
*Format: mp3@CBR320kbps
*Size: 96MB

Tracklist:
1. Enter the Necropolis 06:09
2. With Hate and Flaming Visions 03:58
3. Witness the Earth Descend 04:27
4. Demoniac Reflections 03:31
5. A Prayer to the Void 04:37
6. Into Undead Catacombs 04:36
7. Herald of Demise 03:38
8. Pavane 06:10
******************************
Total playing time: 37:06




Extended info
Vardøger Guitars, Drums, Bass (2014-present)
See also: Fylgjur
Revenant Vocals (2018-present)
See also: Rituals of a Blasphemer, Sarkrista, ex-Goats of Doom (live)


Technical info

Input File: 05 A Prayer To The Void.mp3
Channels : 2
Sample Rate : 44100
Precision : 16-bit
Duration : 00:04:37.80 = 12251024 samples = 20835.1 CDDA sectors
File Size : 11.5M
Bit Rate : 332k
Sample Encoding: MPEG audio (layer I, II or III)
Comments :
Title=A Prayer To The Void
Artist=Sarastus
Album=Enter The Necropolis
Tracknumber=05
Year=2019



Register


Go to the top of the page
  Insert nick Quick quote
+Quote Post
 
Start new topic
Replies (1 - 8)
post Feb 8 2019, 20:43:53
Post #2

Два Литра
**
Group: Завсегдатай
Posts: 188
Releases: 4
From: урал
On Forums: 9 years 3 months
Thanks: 266 time(s)
Russian Federation


От Daale ждал!
Go to the top of the page
  Insert nick Quick quote
+Quote Post
post Feb 9 2019, 06:09:21
Post #3

Detective Godzilla
Group Icon
Group: Moderation team
Posts: 2,863
Releases: 234
On Forums: 8 years 1 week
Thanks: 7454 time(s)
Russian Federation


vovenom, А купил в итоге другой товарищ (немного с другого портала), который пачками релизы покупает. За что ему мое уважение.


Go to the top of the page
  Insert nick Quick quote
+Quote Post
post Feb 9 2019, 18:15:57
Post #4
BAN
Banned till
Mar 15 2019, 18:15:28



Xepня.
Потерянное время.


Thanks:
Go to the top of the page
  Insert nick Quick quote
+Quote Post
post Feb 9 2019, 19:00:27
Post #5

Правь статус, ####!111
**************
Group: Металариец
Posts: 16,005
Releases: 10862
From: Г.Харьков
On Forums: 6 years 9 months
Thanks: 180727 time(s)
Unknown


Cloud Mail 320
Register


Thanks:
Go to the top of the page
  Insert nick Quick quote
+Quote Post
post Feb 10 2019, 18:18:05
Post #6

Правь статус, ####!111
**************
Group: Металариец
Posts: 2,114
Releases: 0
From: Dnipro
On Forums: 10 years 7 months
Thanks: 537 time(s)
Ukraine


По сути уже по тысяче раз такое спето и сыграно, но все равно альбом достойный и качественный.
Как по мне так стиль: Melodic Black Metal


Thanks:
(1) judaz,
Go to the top of the page
  Insert nick Quick quote
+Quote Post
post Feb 11 2019, 19:12:12
Post #7

De Mysteriis Dom Sathanas
**************
Group: Металариец
Posts: 3,402
Releases: 63
From: Москва
On Forums: 10 years 7 months
Thanks: 2914 time(s)
Russian Federation


Шикарная мелодичная финка, особо выделил бы Pavane и With Hate And Flaming Visions pray.gif


Thanks:
(1) judaz,
Go to the top of the page
  Insert nick Quick quote
+Quote Post
post Feb 11 2019, 19:22:46
Post #8

кручу наждак
**************
Group: Металариец
Posts: 3,682
Releases: 94
From: Самара
On Forums: 8 years 9 months
Thanks: 2770 time(s)
Russian Federation


Ультра-мелодично и цепляюще. Приятный сюрприз.
Go to the top of the page
  Insert nick Quick quote
+Quote Post
post Feb 11 2019, 19:54:56
Post #9

Full-of-Hate
**************
Group: Металариец
Posts: 2,580
Releases: 0
From: Moscow
On Forums: 9 years 7 months
Thanks: 1852 time(s)
Russian Federation


Не более, чем неплохо. Финская мелодичная свистопляска, немного типичная для тех мест, но пожалуй что звучит мелодично и душевно. Некоторые треки не мешало бы порезать и уместить все это творчество в честных 30 минут. Отдельные треки провисают, из-за чего пластинку нельзя назвать отличной.
Go to the top of the page
  Insert nick Quick quote
+Quote Post

Reply to this topicStart new topic
2 User(s) are reading this topic (2 Guests and 0 Anonymous Users)
0 Members:

 



- Lo-Fi Version Support form
Copyrights and abuse reports form
Time is now: 19th February 2019 - 12:45:26