X   Site Message
(Message will auto close in 2 seconds)

Welcome Guest ( Log In | Register )

> Von - Dark Gods: Birth Of The Architects (2017), Black Metal (D)
post Jan 10 2019, 05:31:56
Post #1

Group: Подсевший
Posts: 29
Releases: 2
From: Mexico
On Forums: 9 years 9 months
Thanks: 37 time(s)
Mexico




*Artist: Von
*Album: Dark Gods: Birth Of The Architects
*Year: 2017
*Genre: Black Metal
*Country: United States
*Format: mp3@CBR320kbps
*Size: 168MB

Tracklist:
1.The Council of Seven 06:39
2.Architects of Death 05:48
3.Rise of the Ancients 07:39
4.Muse of Evil 05:05
5.DemonSkin 08:48
6.Invasion 05:50
7.Black Lotus 05:32
8.The Culling 06:06
9.Ritual of the Black Mass 06:04
10.Mother 08:25
******************************
Total playing time: 1:05:56



Technical info

Input File: Muse of Evil (Digital Edition.1).mp3
Channels : 2
Sample Rate : 44100
Precision : 16-bit
Duration : 00:01:20.15 = 3534527 samples = 6011.1 CDDA sectors
File Size : 3.35M
Bit Rate : 335k
Sample Encoding: MPEG audio (layer I, II or III)
Comments :
Title=Muse of Evil
Artist=VON
Album=Dark Gods: Birth of The Architects
Tracknumber=04
Year=2017



Register


Go to the top of the page
  Insert nick Quick quote
+Quote Post
 
Start new topic
Replies (1 - 5)
post Jan 10 2019, 06:05:12
Post #2

the faceless one
Group Icon
Group: S-moderation team
Posts: 8,831
Releases: 1712
On Forums: 10 years 5 months
Thanks: 101764 time(s)
Unknown


Register


Go to the top of the page
  Insert nick Quick quote
+Quote Post
post Jan 10 2019, 06:40:33
Post #3

кручу наждак
**************
Group: Металариец
Posts: 3,629
Releases: 93
From: Самара
On Forums: 8 years 8 months
Thanks: 2730 time(s)
Russian Federation


Ждал еще 2 года назад.
Go to the top of the page
  Insert nick Quick quote
+Quote Post
post Jan 10 2019, 07:56:28
Post #4

Маньяк
**********
Group: Металариец
Posts: 1,152
Releases: 1
From: Беларусь
On Forums: 11 years 2 weeks
Thanks: 442 time(s)
Russian Federation


Блэка тут нету почти. Один дум остался
Go to the top of the page
  Insert nick Quick quote
+Quote Post
post Jan 10 2019, 08:19:37
Post #5

Три Литра
***
Group: Завсегдатай
Posts: 296
Releases: 5
From: Самара
On Forums: 10 years 4 months
Thanks: 277 time(s)
Russian Federation


это какой именно Вон? а то их развелось)
Go to the top of the page
  Insert nick Quick quote
+Quote Post
post Jan 11 2019, 20:09:28
Post #6

De Mysteriis Dom Sathanas
**************
Group: Металариец
Posts: 3,378
Releases: 63
From: Москва
On Forums: 10 years 6 months
Thanks: 2887 time(s)
Russian Federation


ЦИТАТА(Dantalian @ Jan 10 2019, 10:19:37) *
это какой именно Вон? а то их развелось)

Тот самый, у которого на мой взгляд единственный норм альбом это Satanic Blood...сейчас я вообще не понимаю чего они там лабают


Thanks:
Go to the top of the page
  Insert nick Quick quote
+Quote Post

Reply to this topicStart new topic
2 User(s) are reading this topic (2 Guests and 0 Anonymous Users)
0 Members:

 



- Lo-Fi Version Support form
Copyrights and abuse reports form
Time is now: 23rd January 2019 - 02:44:19