X   Site Message
(Message will auto close in 2 seconds)

Welcome Guest ( Log In | Register )

> Releases Upload / Добавление релизов

Добавить релиз тут / Click here to add release
Рекомендованные обменники / Recommended file shares

> Полуврак - Тътени Огласят Тишината (2018), Black Metal
post Jan 11 2019, 16:50:16
Post #1


Group Icon
Group: Curation team
Posts: 1,831
Releases: 130
On Forums: 12 years 3 months
Thanks: 13119 time(s)
Russian Federation




*Artist: Полуврак
*Album: Тътени Огласят Тишината
*Year: 2018
*Genre: Black Metal
*Country: Bulgaria
*Format: mp3@CBR320kbps
*Size: 88MB

Tracklist:
1. Кръстопът 5:58
2. Бесове 4:00
3. Жив съм! 3:25
4. Мъглата се разстилаше 3:26
5. Участ 4:10
6. Съкровището на Ревуля 6:06
7. Поглед в мрака бездънен 5:24
8. Сияние 7:08
******************************
Total playing time: 39:37



Extended info
Lower Silesian Stronghold, October 10th, 2018.
CD, limited to 500 copies.

Отличный блек из Болгарии со своим лицом. Чистый вокал с хрипотцой, хорошая атмосфера.

Мой CD rip (EAC + lame 3.99.2).


Technical info

Input File: 01 Трек01.mp3
Channels : 2
Sample Rate : 44100
Precision : 16-bit
Duration : 00:05:57.96 = 15786036 samples = 26847 CDDA sectors
File Size : 14.3M
Bit Rate : 320k
Sample Encoding: MPEG audio (layer I, II or III)
Comments :
Title=Кръстопът
Artist=Полуврак
Album=Тътени огласят тишината
Tracknumber=01/08
Year=2018
Genre=Black Metal
Discnumber=1/1



Register


Go to the top of the page
  Insert nick Quick quote
+Quote Post
 
Start new topic
Replies (1 - 3)
post Jan 11 2019, 17:06:33
Post #2

filed under desecration
Group Icon
Group: S-moderation team
Posts: 8,816
Releases: 1705
On Forums: 10 years 5 months
Thanks: 101469 time(s)
Unknown


HQ Cover


Register


Thanks:
Go to the top of the page
  Insert nick Quick quote
+Quote Post
post Jan 13 2019, 10:39:33
Post #3

Necromancer
Group Icon
Group: Curation team
Posts: 10,787
Releases: 271
From: Зеленоград
On Forums: 12 years 3 months
Thanks: 8654 time(s)
Russian Federation


RADeus, спасибо. true_black.gif


Thanks:
(1) RADeus,
Go to the top of the page
  Insert nick Quick quote
+Quote Post
post Yesterday, 18:18:17
Post #4

While Waiting the Worms
*******
Group: Металариец
Posts: 708
Releases: 0
On Forums: 5 years 3 weeks
Thanks: 943 time(s)
Unknown


Атмосфера и правда хороша.
Всё довольно простенько и ненавязчиво, но гармонично, искренне и весьма цепляюще.
А к вокалу быстро привыкаешь.
Go to the top of the page
  Insert nick Quick quote
+Quote Post

Reply to this topicStart new topic
2 User(s) are reading this topic (2 Guests and 0 Anonymous Users)
0 Members:

 



- Lo-Fi Version Support form
Copyrights and abuse reports form
Time is now: 19th January 2019 - 10:00:54