X   Site Message
(Message will auto close in 2 seconds)

Welcome Guest ( Log In | Register )

> Severoth - When The Night Falls (2018), Atmospheric Black Metal (D6)
post Oct 31 2018, 08:05:34
Post #1

Serial Uploader
Group Icon
Group: V.I.P
Posts: 33,571
Releases: 31834
From: Lithuania
On Forums: 10 years 7 months
Thanks: 363423 time(s)
Lithuania




*Artist: Severoth
*Album: When The Night Falls
*Year: 2018
*Genre: Atmospheric Black Metal
*Country: Ukraine
*Format: mp3@CBR320kbps
*Size: 157MB

Tracklist:
01. Колискову Співала Зима
02. Блукав Крізь Тумани Місяць Блідий
03. Темні Думи
04. Тужили Ясні Зорі
05. Поклик Карпат
06. З дерев опадає убрання…
07. Осіння Прощальна Краса
08. Крила Нічних Птахів
******************************
Total playing time: 1:08:33



Technical info

Input File: 02. As Pale Moon Across Mists Wandered.mp3
Channels : 2
Sample Rate : 44100
Precision : 16-bit
Duration : 00:12:19.78 = 32624254 samples = 55483.4 CDDA sectors
File Size : 29.6M
Bit Rate : 320k
Sample Encoding: MPEG audio (layer I, II or III)
Comments :
Title=As Pale Moon Across Mists Wandered
Artist=Severoth
Album=When the Night Falls...
Tracknumber=2/8
Year=2018



Register


Go to the top of the page
  Insert nick Quick quote
+Quote Post
 
Start new topic
Replies (1 - 9)
post Oct 31 2018, 14:39:47
Post #2

Сектант технодро4чер
**************
Group: Металариец
Posts: 5,338
Releases: 143
From: Тимчасово окупована територія
On Forums: 10 years 4 months
Thanks: 5518 time(s)
Ukraine


ЦИТАТА(necroscum @ Oct 31 2018, 11:05:34) *
Полное время альбома: 12:19

Точно атмосферик? 1488.gif
Go to the top of the page
  Insert nick Quick quote
+Quote Post
post Oct 31 2018, 15:11:47
Post #3

Два Литра
**
Group: Завсегдатай
Posts: 178
Releases: 4
From: урал
On Forums: 9 years 2 months
Thanks: 240 time(s)
Russian Federation


ЦИТАТА(neoatheist @ Oct 31 2018, 18:39:47) *
Точно атмосферик? 1488.gif

У него не в первый раз такая такая хрень
Go to the top of the page
  Insert nick Quick quote
+Quote Post
post Oct 31 2018, 15:36:10
Post #4

Время Мары
**************
Group: Металариец
Posts: 2,998
Releases: 390
From: Харьков
On Forums: 9 years 7 months
Thanks: 7498 time(s)
Ukraine


ЦИТАТА(neoatheist @ Oct 31 2018, 15:39:47) *
Точно атмосферик? 1488.gif

Полное время альбома: 1:08:33


Thanks:
(1) nsk2008,
Go to the top of the page
  Insert nick Quick quote
+Quote Post
post Oct 31 2018, 15:50:00
Post #5

Русь Понад Усе!
**************
Group: Металариец
Posts: 4,124
Releases: 15
From: Украина
On Forums: 11 years 4 months
Thanks: 1592 time(s)
Ukraine


Добрые люди залейте на мегу кто нибудь bye.gif


Thanks:
(1) rimfrost,
Go to the top of the page
  Insert nick Quick quote
+Quote Post
post Oct 31 2018, 15:54:26
Post #6

Мегаманьяк
***********
Group: Металариец
Posts: 1,979
Releases: 0
From: Dnipro
On Forums: 10 years 6 months
Thanks: 504 time(s)
Ukraine


Это песня Блукав Крізь Тумани Місяць Блідий 12:19
Хоть и земляк, но его творчество не по душе, с проектом Bezmir у него лучше получилось.
Go to the top of the page
  Insert nick Quick quote
+Quote Post
post Oct 31 2018, 18:04:29
Post #7

Восемь Литров
********
Group: Металариец
Posts: 893
Releases: 748
From: Новороссийск
On Forums: 7 years 8 months
Thanks: 12834 time(s)
Russian Federation


ЦИТАТА(recber @ Oct 31 2018, 15:50:00) *
Добрые люди залейте на мегу кто нибудь bye.gif

157 mb

Register


Go to the top of the page
  Insert nick Quick quote
+Quote Post
post Nov 1 2018, 20:59:49
Post #8

Литр
*
Group: Подсевший
Posts: 77
Releases: 0
From: минск сити
On Forums: 9 years 6 months
Thanks: 4 time(s)
Belarus


спасибо, demenn. от всех белорусов за шару в меге ))))))
Go to the top of the page
  Insert nick Quick quote
+Quote Post
post Nov 1 2018, 21:02:59
Post #9

Мегаманьяк
***********
Group: Металариец
Posts: 1,506
Releases: 23
From: Spain
On Forums: 11 years 4 months
Thanks: 1169 time(s)
Spain


Great album, Severoth never dissapoints


Thanks:
(1) nunim,
Go to the top of the page
  Insert nick Quick quote
+Quote Post
post Jan 11 2019, 14:10:06
Post #10

Мегаманьяк
***********
Group: Металариец
Posts: 1,979
Releases: 0
From: Dnipro
On Forums: 10 years 6 months
Thanks: 504 time(s)
Ukraine


ЦИТАТА(isvili @ Oct 31 2018, 16:54:26) *
Хоть и земляк, но его творчество не по душе, с проектом Bezmir у него лучше получилось.
Беру свои слова обратно. Альбом очень годный и попросту охрененный pray.gif Нашел себе лося 25.gif
Go to the top of the page
  Insert nick Quick quote
+Quote Post

Reply to this topicStart new topic
2 User(s) are reading this topic (2 Guests and 0 Anonymous Users)
0 Members:

 



- Lo-Fi Version Support form
Copyrights and abuse reports form
Time is now: 19th January 2019 - 09:54:11