X   Site Message
(Message will auto close in 2 seconds)

Welcome Guest ( Log In | Register )

> Releases Upload / Добавление релизов

Добавить релиз тут / Click here to add release
Рекомендованные обменники / Recommended file shares

> Solis In Antris - The Forlorn Warrior (2019), Epic Black Metal
post Jan 12 2019, 19:49:01
Post #1

Правь статус, ####!111
**************
Group: Металариец
Posts: 3,489
Releases: 760
From: Brazil
On Forums: 6 years 11 months
Thanks: 28909 time(s)
Brazil




*Artist: Solis In Antris
*Album: The Forlorn Warrior
*Year: 2019
*Genre: Epic Black Metal
*Country: Greece
*Format: mp3@CBR320kbps
*Size: 139MB

Tracklist:
1. Awakening 02:52
2. March to Rebirth 06:18
3. Forlorn Warrior 09:05
4. The Curse of Torment 12:53
5. Pale Beauty 05:16
6. Havoc and Darkness, Blackness and Chaos 08:20
7. Aenaon 11:55
8. Threne 02:48
******************************
Total playing time: 59:27



Extended info
Solis In Antris:
VII: Guitars - Bass - Drum Programming - Keys
Hildr: Vocals - Keys

All tracks recorded, mixed and mastered at Solis Studios by VII
(December 2017-November 2018)

Solis in Antris (translation: Alone in the Caves) consists of two multi-instrumentalist members VII and Hildr, both composers of the band. "The Forlorn Warrior" is a concept album about a warrior that gets cursed and forced to live and die over and over again in battles.
A story, a warrior... follow the Forlorn Warrior to his journey by the voice of Hildr and the melodies of VII.


Technical info

Input File: 08 Threne.mp3
Channels : 2
Sample Rate : 44100
Precision : 16-bit
Duration : 00:02:48.08 = 7412372 samples = 12606.1 CDDA sectors
File Size : 6.72M
Bit Rate : 320k
Sample Encoding: MPEG audio (layer I, II or III)
Comments :
Title=Threne
Artist=Solis in Antris
Album=The Forlorn Warrior
Tracknumber=8
Year=2018



Register


Go to the top of the page
  Insert nick Quick quote
+Quote Post
 
Start new topic
Replies (1 - 1)
post Jan 14 2019, 17:42:38
Post #2

Мегаманьяк
***********
Group: Металариец
Posts: 1,979
Releases: 0
From: Dnipro
On Forums: 10 years 6 months
Thanks: 505 time(s)
Ukraine


Зря тут такой вокалист.
Go to the top of the page
  Insert nick Quick quote
+Quote Post

Reply to this topicStart new topic
2 User(s) are reading this topic (2 Guests and 0 Anonymous Users)
0 Members:

 



- Lo-Fi Version Support form
Copyrights and abuse reports form
Time is now: 19th January 2019 - 10:00:29