X   Site Message
(Message will auto close in 2 seconds)

Welcome Guest ( Log In | Register )

> Releases Upload / Добавление релизов

Добавить релиз тут / Click here to add release
Рекомендованные обменники / Recommended file shares

 
Reply to this topicStart new topic
> Tuskar - The Tide, Beneath, The Wall [ep] (2018), Sludge/Doom Metal
post Dec 6 2018, 17:24:59
Post #1

Аннигилятор пивА
Group Icon
Group: V.I.P
Posts: 50,769
Releases: 15822
From: Koenigsberg - TILZIT
On Forums: 12 years 6 months
Thanks: 345114 time(s)
Russian Federation




*Artist: Tuskar
*Album: The Tide, Beneath, The Wall [ep]
*Year: 2018
*Genre: Sludge/Doom Metal
*Country: United Kingdom
*Format: mp3@CBR320kbps
*Size: 49MB

Tracklist:
1. The Tide 07:02
2. Beneath 04:45
3. The Wall 07:45
******************************
Total playing time: 19:32




Extended info
A two piece doom/sludge outfit hailing from Milton Keyens, residing in the Surrey Hills, combining elements of: Doom, Sludge, and Black Meta


Technical info

Input File: 02 Beneath.mp3
Channels : 2
Sample Rate : 44100
Precision : 16-bit
Duration : 00:04:45.43 = 12587419 samples = 21407.2 CDDA sectors
File Size : 12.6M
Bit Rate : 354k
Sample Encoding: MPEG audio (layer I, II or III)
Comments :
Title=Beneath
Artist=Tuskar
Album=The Tide, Beneath, the Wall
Tracknumber=2/3
Year=2018
Genre=Metal
Discnumber=1/1



Register


Go to the top of the page
  Insert nick Quick quote
+Quote Post

Reply to this topicStart new topic
2 User(s) are reading this topic (2 Guests and 0 Anonymous Users)
0 Members:

 



- Lo-Fi Version Support form
Copyrights and abuse reports form
Time is now: 12th December 2018 - 18:34:10