X   Site Message
(Message will auto close in 2 seconds)

Welcome Guest ( Log In | Register )

> Releases Upload / Добавление релизов

Добавить релиз тут / Click here to add release
Рекомендованные обменники / Recommended file shares

> Obscenity - Summoning The Circle (2018), Old School Death Metal
post Dec 6 2018, 11:43:51
Post #1

Аннигилятор пивА
Group Icon
Group: V.I.P
Posts: 50,768
Releases: 15822
From: Koenigsberg - TILZIT
On Forums: 12 years 6 months
Thanks: 345114 time(s)
Russian Federation




*Artist: Obscenity
*Album: Summoning The Circle
*Year: 2018
*Genre: Old School Death Metal
*Country: Germany
*Format: mp3@CBR320kbps
*Size: 91MB

Tracklist:
1. Used and Abused
2. Feasting from the Dead
3. Infernal Warfare
4. Dreadfully Embraced
5. Scourge of Humanity
6. Torment for the Living
7. Invocation Obscure
8. The Ones Concerned
9. Let Her Bleed
******************************
Total playing time: 38:32




Extended info
Sascha Knust - Drums (1989-2000, 2011-present) See also: ex-The Awakening, ex-The Now Noise!, ex-Sethnefer
Hendrik Bruns - Guitars (1989-present)
Christoph Weerts - Guitars (2011-present) See also: ex-Assassinated
David Speckmann - Bass (2016-present) See also: Burial Vault, Namrasit
Manuel Siewert - Vocals (2016-present) See also: ex-Andsolis, ex-Chronicle of Tyrants, ex-December Flower


Technical info

Input File: 02. Feasting from the Dead.mp3
Channels : 2
Sample Rate : 44100
Precision : 16-bit
Duration : 00:03:55.56 = 10388152 samples = 17666.9 CDDA sectors
File Size : 9.67M
Bit Rate : 328k
Sample Encoding: MPEG audio (layer I, II or III)
Comments :
Title=Feasting from the Dead
Artist=Obscenity
Album=Summoning the Circle
Tracknumber=2/9
Year=2018
Discnumber=1/1



Register


Go to the top of the page
  Insert nick Quick quote
+Quote Post
 
Start new topic
Replies (1 - 3)
post Dec 6 2018, 14:21:57
Post #2

Аннигилятор пивА
Group Icon
Group: V.I.P
Posts: 50,768
Releases: 15822
From: Koenigsberg - TILZIT
On Forums: 12 years 6 months
Thanks: 345114 time(s)
Russian Federation


mirror
Register





Go to the top of the page
  Insert nick Quick quote
+Quote Post
post Dec 6 2018, 14:50:13
Post #3

Правь статус, ####!111
**************
Group: Металариец
Posts: 35,385
Releases: 523
On Forums: 9 years 6 months
Thanks: 27448 time(s)
Russian Federation


@320

Register


Thanks:
Go to the top of the page
  Insert nick Quick quote
+Quote Post
post Dec 6 2018, 18:10:58
Post #4

Маньяк
**********
Group: Металариец
Posts: 1,289
Releases: 0
On Forums: 10 years 10 months
Thanks: 527 time(s)
Russian Federation


Нормалёк. Переслушаю, пожалуй, всю их дискографию, ибо теперь у них уже 10 полноформатов.
Go to the top of the page
  Insert nick Quick quote
+Quote Post

Reply to this topicStart new topic
2 User(s) are reading this topic (2 Guests and 0 Anonymous Users)
0 Members:

 



- Lo-Fi Version Support form
Copyrights and abuse reports form
Time is now: 12th December 2018 - 18:14:27