X   Site Message
(Message will auto close in 2 seconds)

Welcome Guest ( Log In | Register )

> Releases Upload / Добавление релизов

Добавить релиз тут / Click here to add release
Рекомендованные обменники / Recommended file shares

 
Reply to this topicStart new topic
> Nasty Cunt Slime - 6 Holiday Traxxx [demo] (2018), Porno Goregrind
post Jan 12 2019, 14:09:02
Post #1

Serial Uploader
Group Icon
Group: V.I.P
Posts: 33,571
Releases: 31834
From: Lithuania
On Forums: 10 years 7 months
Thanks: 363423 time(s)
Lithuania




*Artist: Nasty Cunt Slime
*Album: 6 Holiday Traxxx [demo]
*Year: 2018
*Genre: Porno Goregrind
*Country: United States
*Format: mp3@CBR320kbps
*Size: 7MB

Tracklist:
01. 6 Holiday Traxxx 03:07
******************************
Total playing time: 3:07




Technical info

Input File: 01. 6 HOLIDAY TRAXXX.mp3
Channels : 2
Sample Rate : 44100
Precision : 16-bit
Duration : 00:03:07.28 = 8259136 samples = 14046.1 CDDA sectors
File Size : 7.65M
Bit Rate : 327k
Sample Encoding: MPEG audio (layer I, II or III)
Comments :
Title=6 HOLIDAY TRAXXX
Artist=NASTY CUNT SLIME
Tracknumber=1
Year=2018



Register


Thanks:
(1) Olethros,
Go to the top of the page
  Insert nick Quick quote
+Quote Post

Reply to this topicStart new topic
2 User(s) are reading this topic (2 Guests and 0 Anonymous Users)
0 Members:

 



- Lo-Fi Version Support form
Copyrights and abuse reports form
Time is now: 19th January 2019 - 11:56:23