X   Site Message
(Message will auto close in 2 seconds)

Welcome Guest ( Log In | Register )

> Krisiun - Scourge Of The Enthroned (2018), Death Metal
post Sep 6 2018, 02:37:36
Post #1

Правь статус, ####!111
**************
Group: Металариец
Posts: 15,694
Releases: 10659
From: Г.Харьков
On Forums: 6 years 8 months
Thanks: 177305 time(s)
Unknown




*Artist: Krisiun
*Album: Scourge Of The Enthroned
*Year: 2018
*Genre: Death Metal
*Country: Brazil
*Format: mp3@CBR320kbps
*Size: 96MB

Tracklist:
1. Scourge of the Enthroned 05:54
2. Demonic III 05:01
3. Devouring Faith 04:19
4. Slay the Prophet 04:50
5. A Thousand Graves 04:11
6. Electricide 04:04
7. Abysmal Misery (Foretold Destiny) 03:57
8. Whirlwind of Immortality 05:51
******************************
Total playing time: 38:07



Extended info
Alex Camargo Bass, Vocals
Max Kolesne Drums
Moyses Kolesne Guitars


Technical info

Input File: 02. Demonic III.mp3
Channels : 2
Sample Rate : 48000
Precision : 16-bit
Duration : 00:05:01.56 = 14475024 samples ~ 22617.2 CDDA sectors
File Size : 12.2M
Bit Rate : 324k
Sample Encoding: MPEG audio (layer I, II or III)
Comments :
Title=Demonic III
Artist=Krisiun
Album=Scourge Of The Enthroned
Tracknumber=2
Year=2018
Genre=Death Metal



Register


Go to the top of the page
  Insert nick Quick quote
+Quote Post
2 Pages V  < 1 2  
Start new topic
Replies (30 - 31)
post Jan 11 2019, 14:37:23
Post #31

Ледоруб
**************
Group: Металариец
Posts: 21,135
Releases: 0
From: Санкт-Петербург
On Forums: 9 years 4 months
Thanks: 6842 time(s)
Russian Federation


ЦИТАТА(vosmidesijatye @ 11th January 2019 - 15:21:23) *
Благодаря ударнику тогда у тебя и каннибалы должны туда же улететь

Они и улетели.
Go to the top of the page
  Insert nick Quick quote
+Quote Post
post Jan 14 2019, 07:49:57
Post #32

Самый Тихий Час
**************
Group: Металариец
Posts: 5,627
Releases: 0
On Forums: 9 years 2 months
Thanks: 2468 time(s)
Unknown


Хороший альбом 27.gif
Go to the top of the page
  Insert nick Quick quote
+Quote Post

2 Pages V  < 1 2
Reply to this topicStart new topic
2 User(s) are reading this topic (2 Guests and 0 Anonymous Users)
0 Members:

 



- Lo-Fi Version Support form
Copyrights and abuse reports form
Time is now: 19th January 2019 - 10:14:25