X   Site Message
(Message will auto close in 2 seconds)

Welcome Guest ( Log In | Register )

> Releases Upload / Добавление релизов

Добавить релиз тут / Click here to add release
Рекомендованные обменники / Recommended file shares

 
Reply to this topicStart new topic
> Mjerim - Mjerim (2018), Depressive Black Metal
post Feb 12 2019, 14:17:46
Post #1

Serial Uploader
Group Icon
Group: V.I.P
Posts: 33,894
Releases: 32134
From: Lithuania
On Forums: 10 years 8 months
Thanks: 366582 time(s)
Lithuania




*Artist: Mjerim
*Album: Mjerim
*Year: 2018
*Genre: Depressive Black Metal
*Country: Norway
*Format: mp3@CBR320kbps
*Size: 137MB

Tracklist:
01. Forlatt Konge av Ensomhet 07:12
02. Red Are the Eyes of the Lost And The Damned 09:36
03. Awash by the Mighty Wave of Nothingness 12:09
04. Absence of Warmth, Lonely Prison of Life 06:42
05. Pillars of Trishet 07:07
06. Elskeren 07:14
07. So Wretched are Thee, Dearest Pains That Plague Me 09:33
******************************
Total playing time: 59:33



Technical info

Input File: 02. Red Are the Eyes of the Lost And The Damned.mp3
Channels : 2
Sample Rate : 44100
Precision : 16-bit
Duration : 00:09:37.02 = 25446758 samples = 43276.8 CDDA sectors
File Size : 23.3M
Bit Rate : 322k
Sample Encoding: MPEG audio (layer I, II or III)
Comments :
Title=Red Are the Eyes of the Lost And The Damned
Artist=Mjerim
Album=Mjerim
Tracknumber=2
Year=2018



Register


Go to the top of the page
  Insert nick Quick quote
+Quote Post

Reply to this topicStart new topic
2 User(s) are reading this topic (2 Guests and 0 Anonymous Users)
0 Members:

 



- Lo-Fi Version Support form
Copyrights and abuse reports form
Time is now: 18th February 2019 - 10:05:00