X   Site Message
(Message will auto close in 2 seconds)

Welcome Guest ( Log In | Register )

> Releases Upload / Добавление релизов

Добавить релиз тут / Click here to add release
Рекомендованные обменники / Recommended file shares

> Various Artists - Underjord [compilation] (1999), Black/Melodic Death/Doom Metal
post Jan 12 2019, 09:32:09
Post #1


Group Icon
Group: S-moderation team
Posts: 8,228
Releases: 1418
On Forums: 7 years 10 months
Thanks: 40213 time(s)
Croatia




*Artist: Various Artists
*Album: Underjord [compilation]
*Year: 1999
*Genre: Black/Melodic Death/Doom Metal
*Country: Sweden
*Format: mp3@CBR192kbps
*Size: 95MB

Tracklist:
01 Dead Silent Slumber - The Obnoxious Sun 04:32
02 Maleficio - Liar On The Cross 05:23
03 Maleficio - The Black Veil 06:37
04 Hellspell - Den Eviga Striden 04:24
05 Eblis - Ancient Manifestation Of Hatred / After Seven Days 07:22
06 Noutheim - Infuriating Disguise 03:08
07 Devil's Crown - God Of Creation 04:32
08 Devil's Crown - Nothing Is Forever 06:01
09 Cranial Dust - In The Black Flames 08:17
10 Hellmasker - Beat On The Brat 01:44
11 Hellmasker - Burnt To A Crisp 01:39
12 Carnal Grief - Entangled By Chaos 04:47
13 Author Of Pain - Fields Of Fire 04:12
14 Author Of Pain - 1998/3=666 04:04
15 Sadauk - Tears Of The Sun 02:47
******************************
Total playing time: 1:09:29

Extended info
Discogs
Scene rip.


Technical info

Input File: 03-maleficio-the_black_veil-gw.mp3
Channels : 2
Sample Rate : 44100
Precision : 16-bit
Duration : 00:06:37.89 = 17546861 samples = 29841.6 CDDA sectors
File Size : 9.55M
Bit Rate : 192k
Sample Encoding: MPEG audio (layer I, II or III)
Comments :
Title=The Black Veil
Artist=Maleficio
Album=VA-Underjord
Year=1999
Genre=9



Register


This post has been edited by Borderline1991: Jan 12 2019, 18:41:59


Go to the top of the page
  Insert nick Quick quote
+Quote Post
 
Start new topic
Replies (1 - 1)
post Jan 12 2019, 18:16:46
Post #2

Социопат.Маргинал. Мизантроп.Нигилист. Перверзный нарциссист.
**************
Group: Металариец
Posts: 5,370
Releases: 667
From: Город-герой Ленинград
On Forums: 7 years 11 months
Thanks: 6026 time(s)
Russian Federation


Другой обменник,пожалуйста.
Go to the top of the page
  Insert nick Quick quote
+Quote Post

Reply to this topicStart new topic
3 User(s) are reading this topic (3 Guests and 0 Anonymous Users)
0 Members:

 



- Lo-Fi Version Support form
Copyrights and abuse reports form
Time is now: 19th January 2019 - 12:05:52