X   Site Message
(Message will auto close in 2 seconds)

Welcome Guest ( Log In | Register )

> Releases Upload / Добавление релизов

Добавить релиз тут / Click here to add release
Рекомендованные обменники / Recommended file shares

 
Reply to this topicStart new topic
> Meth Induced - Digital Powerviolence (2019), Goregrind/Cybergrind (D6)
post Feb 12 2019, 13:37:41
Post #1

Serial Uploader
Group Icon
Group: V.I.P
Posts: 33,894
Releases: 32134
From: Lithuania
On Forums: 10 years 8 months
Thanks: 366582 time(s)
Lithuania




*Artist: Meth Induced
*Album: Digital Powerviolence
*Year: 2019
*Genre: Goregrind/Cybergrind
*Country: United States
*Format: mp3@CBR320kbps
*Size: 57MB

Tracklist:
01. Muhcackissick (Interlude) 00:20
02. Pandemonial State 01:16
03. Breakup Over The Phone 00:30
04. Disparaged 01:25
05. Pixelized Genitalia 01:43
06. Omegle Smegle 01:22
07. Thot E-Visceraped 01:13
08. Agonizingreprimand (Interlude) 00:23
09. 3 Days Without Porn 02:06
10. Buffering The Cam Masturbator 02:27
11. Analog Anarchy 02:16
12. Forceful Facefuck 02:25
13. Abyssal Cervix 00:24
14. Inverted Crucimas 01:07
15. Shooting Dope Is Dopy 01:01
16. Digitized Degenerate 01:14
17. WhenJehovahComesKnocking (Interlude) 02:00
******************************
Total playing time: 23:12



Technical info

Input File: Meth Induced - Digital Powerviolence - 02 Pandemonial State.mp3
Channels : 2
Sample Rate : 44100
Precision : 16-bit
Duration : 00:01:16.23 = 3361699 samples = 5717.18 CDDA sectors
File Size : 3.20M
Bit Rate : 336k
Sample Encoding: MPEG audio (layer I, II or III)
Comments :
Title=Pandemonial State
Artist=Meth Induced
Album=Digital Powerviolence
Tracknumber=2
Year=2019



Register


Go to the top of the page
  Insert nick Quick quote
+Quote Post

Reply to this topicStart new topic
2 User(s) are reading this topic (2 Guests and 0 Anonymous Users)
0 Members:

 



- Lo-Fi Version Support form
Copyrights and abuse reports form
Time is now: 18th February 2019 - 10:07:40