X   Site Message
(Message will auto close in 2 seconds)

Welcome Guest ( Log In | Register )

> Releases Upload / Добавление релизов

Добавить релиз тут / Click here to add release
Рекомендованные обменники / Recommended file shares

 
Reply to this topicStart new topic
> Various Artists - Extreme Underground Vol. I [compilation] (2003), Various Metal
post Jan 12 2019, 13:45:48
Post #1


Group Icon
Group: S-moderation team
Posts: 8,228
Releases: 1418
On Forums: 7 years 10 months
Thanks: 40213 time(s)
Croatia




*Artist: Various Artists
*Album: Extreme Underground Vol. I [compilation]
*Year: 2003
*Genre: Various Metal
*Country: Brazil
*Format: mp3@VBR208kbps
*Size: 113MB

Tracklist:
01 Morbus Inferno - Alchemy Of Pain 04:05
02 Damien - Victims Of Perhaps 05:55
03 Edge Of Thorns - Pacto Do Silêncio 02:58
04 Edge Of Thorns - Eclipse Do Eden 03:03
05 Eternal Desolation - Eternal Desolation 06:02
06 Krushies - Signs Of The World 04:59
07 Abaddon - Mind Conflict 05:49
08 Inbleeding - King Nothing 06:03
09 Baptised In Ice - Ancestor Song 05:02
10 Land Of Tears - Tormentwd Shadows 03:03
11 Mental Asylum - Empty Heart 05:52
12 Bloody - Real Vision 03:00
13 Escrófula - For The Disgrace Of God 02:14
14 Suicide - The New Inquisition 03:33
15 Perpetual Dusk - Peomised Key To The Unholy Gates Of Evil 06:31
16 Blackmass - Blackmass 05:06
******************************
Total playing time: 1:13:15

Extended info
Brazilian metal compilation. Avernus Records CD.
Scene rip.
Discogs link


Technical info

Input File: 02-damien-victim_of_perhaps-gw.mp3
Channels : 2
Sample Rate : 44100
Precision : 16-bit
Duration : 00:05:55.66 = 15684474 samples = 26674.3 CDDA sectors
File Size : 10.2M
Bit Rate : 231k
Sample Encoding: MPEG audio (layer I, II or III)
Comments :
Title=Victim of Perhaps
Artist=Damien
Album=Extreme Underground Vol. I
Year=2003
Genre=9



Register


Go to the top of the page
  Insert nick Quick quote
+Quote Post

Reply to this topicStart new topic
2 User(s) are reading this topic (2 Guests and 0 Anonymous Users)
0 Members:

 



- Lo-Fi Version Support form
Copyrights and abuse reports form
Time is now: 19th January 2019 - 11:57:08