X   Site Message
(Message will auto close in 2 seconds)

Welcome Guest ( Log In | Register )

> Releases Upload / Добавление релизов

Добавить релиз тут / Click here to add release
Рекомендованные обменники / Recommended file shares

> Putrefiance - Demo 2018 [demo] (2018), Old School Death Metal
post Jan 9 2019, 23:44:25
Post #1

Правь статус, ####!616
**************
Group: Металариец
Posts: 4,461
Releases: 3053
From: 55°35’N 38°08’E
On Forums: 10 years 6 months
Thanks: 57668 time(s)
Unknown




*Artist: Putrefiance
*Album: Demo 2018 [demo]
*Year: 2018
*Genre: Old School Death Metal
*Country: France
*Format: mp3@CBR320kbps
*Size: 59MB

Tracklist:
1.None Shall Be 03:14
2.Magnificent Putridity 03:09
3.Mental Lesion 03:22
4.Ritualistic Necromancy 02:05
5.Morbid Face of Desolation 04:01
6.Order from Malevolence 02:57
7.Thermonuclear Devastation (Onslaught cover) 01:21
8.Voices of Pandemia 02:44
******************************
Total playing time: 22:53



Technical info

Input File: 01 None Shall Be.mp3
Channels : 2
Sample Rate : 44100
Precision : 16-bit
Duration : 00:03:14.21 = 8564573 samples = 14565.6 CDDA sectors
File Size : 8.04M
Bit Rate : 331k
Sample Encoding: MPEG audio (layer I, II or III)
Comments :
Title=None Shall Be
Artist=Putrefiance
Album=Demo 2018
Tracknumber=1
Year=2018
Genre=Death Metal



Register


Go to the top of the page
  Insert nick Quick quote
+Quote Post
 
Start new topic
Replies (1 - 1)
post Jan 11 2019, 13:57:32
Post #2

Мегаманьяк
***********
Group: Металариец
Posts: 1,979
Releases: 0
From: Dnipro
On Forums: 10 years 6 months
Thanks: 505 time(s)
Ukraine


Я бы сказал что это "Raw Old School Death Metal" 19.gif
Хорошая такая мясная бескомпромиссная олдовая дэзня.
Go to the top of the page
  Insert nick Quick quote
+Quote Post

Reply to this topicStart new topic
2 User(s) are reading this topic (2 Guests and 0 Anonymous Users)
0 Members:

 



- Lo-Fi Version Support form
Copyrights and abuse reports form
Time is now: 19th January 2019 - 09:59:00