X   Site Message
(Message will auto close in 2 seconds)

Welcome Guest ( Log In | Register )

> Caustic Thought - Demo 1990 [demo] (1990), Thrash Metal
post Mar 8 2014, 01:09:49
Post #1

Подвал
**************
Group: Металариец
Posts: 13,036
Releases: 7306
From: Far East (Khabarovsk)
On Forums: 10 years 2 weeks
Thanks: 69143 time(s)
Russian Federation




*Artist: Caustic Thought
*Album: Demo 1990 [demo]
*Year: 1990
*Genre: Thrash Metal
*Country: Canada
*Format: mp3@CBR320kbps
*Size: 35MB

Tracklist:
1. What Is Real 04:49
2. Under Your Skin 03:11
3. Revert 03:48
4. Tender Prey 06:05
******************************
Total playing time: 17:53

Technical info

Input File: 01-What Is Real.mp3
Channels : 2
Sample Rate : 44100
Precision : 16-bit
Duration : 00:04:45.70 = 12599502 samples = 21427.7 CDDA sectors
File Size : 11.4M
Bit Rate : 320k
Sample Encoding: MPEG audio (layer I, II or III)
Comments :
Title=What Is Real
Artist=Caustic Thought
Album=Demo 1990
Tracknumber=01
Year=1990
Genre=Thrash Metal



Register


Go to the top of the page
  Insert nick Quick quote
+Quote Post
 
Start new topic
Replies (1 - 1)
post Feb 11 2019, 10:48:25
Post #2

Подвал
**************
Group: Металариец
Posts: 13,036
Releases: 7306
From: Far East (Khabarovsk)
On Forums: 10 years 2 weeks
Thanks: 69143 time(s)
Russian Federation


new link:
Register


Go to the top of the page
  Insert nick Quick quote
+Quote Post

Reply to this topicStart new topic
2 User(s) are reading this topic (2 Guests and 0 Anonymous Users)
0 Members:

 



- Lo-Fi Version Support form
Copyrights and abuse reports form
Time is now: 16th February 2019 - 01:10:08