X   Site Message
(Message will auto close in 2 seconds)

Welcome Guest ( Log In | Register )

> Releases Upload / Добавление релизов

Добавить релиз тут / Click here to add release
Рекомендованные обменники / Recommended file shares

 
Reply to this topicStart new topic
> Smashed Gladys - Live At The Cat Club (1986-11-24) [bootleg] (1986), Hard Rock/Glam/Heavy Metal
post Feb 12 2019, 05:23:40
Post #1

Два Литра
**
Group: Завсегдатай
Posts: 111
Releases: 10
On Forums: 3 weeks 10 hours
Thanks: 173 time(s)
Canada




*Artist: Smashed Gladys
*Album: Live At The Cat Club (1986-11-24) [bootleg]
*Year: 1986
*Genre: Hard Rock/Glam/Heavy Metal
*Country: United States
*Format: mp3@CBR192kbps
*Size: 97MB

Tracklist:
1. Intro 01:47
2. Out Of My Mind 05:02
3. 17 Going On Crazy 04:17
4. It Ain't Right 05:05
5. Move Over (Janis Joplin cover) 05:19
6. Revolteen 05:01
7. Play Dirty 05:12
8. Go To Hell 05:45
9. Sermonette 06:05
10. Hard To Swallow 06:19
11. Playin' Tuff 05:24
12. Rip It Out (KISS cover with Ace Frehley & drummer Anton Fig) 06:40
13. Cold Gin (KISS cover with Ace Frehley, guitar-Richie Scarlet, & Anton Fig) 08:05
******************************
Total playing time: 1:10:01

Extended info
Thanks to the original uploader.
I split the single mp3 file into separate tracks, and titled them.

Smashed Gladys Live - Cat Club - November 24, 1986

NYC sleaze rock/metal band with female singer Sally Cato.

Smashed Gladys were responsible for putting the New York glam/hair metal scene back on the map in the mid 1980s.
Eventually they were screwed by the record business and tour promoters.
http://www.metalmaidens.com/sgladys.htm

This live video for "Out Of My Mind" might be from the same gig.
http://www.youtube.com/watch?v=LEC6E79_QEE

http://www.spirit-of-metal.com/groupe-groupe-Smashed_Gladys-l-en.html
http://en.wikipedia.org/wiki/Smashed_Gladys
http://www.smashedgladys.nyc/home.html


Technical info

Input File: 01. Intro.mp3
Channels : 2
Sample Rate : 48000
Precision : 16-bit
Duration : 00:01:47.43 = 5156592 samples ~ 8057.18 CDDA sectors
File Size : 2.58M
Bit Rate : 192k
Sample Encoding: MPEG audio (layer I, II or III)
Comments :
Title=Intro
Artist=Smashed Gladys
Album=Cat Club - November 24, 1986
Tracknumber=01
Year=1986



Register


Go to the top of the page
  Insert nick Quick quote
+Quote Post

Reply to this topicStart new topic
2 User(s) are reading this topic (2 Guests and 0 Anonymous Users)
0 Members:

 



- Lo-Fi Version Support form
Copyrights and abuse reports form
Time is now: 19th February 2019 - 06:34:40