X   Site Message
(Message will auto close in 2 seconds)

Welcome Guest ( Log In | Register )

> Bekëth Nexëhmü - De Forna Sederna (Del II) [demo] (2014), Black Metal
post Apr 3 2016, 00:03:21
Post #1

Маньяк
**********
Group: Металариец
Posts: 1,498
Releases: 23
From: Spain
On Forums: 11 years 3 months
Thanks: 1160 time(s)
Spain




*Artist: Bekëth Nexëhmü
*Album: De Forna Sederna (Del II) [demo]
*Year: 2014
*Genre: Black Metal
*Country: Sweden
*Format: mp3@CBR320kbps
*Size: 81MB

Tracklist:
1. Urtidens kall 18:10
2. Det förgångna dunklet 17:35
******************************
Total playing time: 35:45

Extended info
Courtesy of EmptinessCycle.
http://blackmetalyesteryear.blogspot.com.es/
More demos to come


Technical info

Input File: 02. Det förgångna dunklet.mp3
Channels : 2
Sample Rate : 44100
Precision : 16-bit
Duration : 00:17:27.95 = 46214639 samples = 78596.3 CDDA sectors
File Size : 41.9M
Bit Rate : 320k
Sample Encoding: MPEG audio (layer I, II or III)
Comments :
Title=Det förgångna dunklet
Artist=BekГ«th NexГ«hmГј
Album=De Forna Sederna (Del II) Demo
Tracknumber=2
Year=2014
Genre=Black Metal



Register


Go to the top of the page
  Insert nick Quick quote
+Quote Post
 
Start new topic
Replies (1 - 2)
post Apr 3 2016, 06:55:52
Post #2

filed under desecration
Group Icon
Group: S-moderation team
Posts: 8,699
Releases: 1643
On Forums: 10 years 4 months
Thanks: 99427 time(s)
Unknown


Зеркало -

Register


Go to the top of the page
  Insert nick Quick quote
+Quote Post
post Dec 6 2018, 17:47:35
Post #3

добрый мизантроп
***********
Group: Металариец
Posts: 1,619
Releases: 0
From: Минск
On Forums: 8 years 4 weeks
Thanks: 486 time(s)
Madagascar


preview
Register
Go to the top of the page
  Insert nick Quick quote
+Quote Post

Reply to this topicStart new topic
2 User(s) are reading this topic (2 Guests and 0 Anonymous Users)
0 Members:

 



- Lo-Fi Version Support form
Copyrights and abuse reports form
Time is now: 12th December 2018 - 18:13:02