X   Site Message
(Message will auto close in 2 seconds)

Welcome Guest ( Log In | Register )

> Releases Upload / Добавление релизов

Добавить релиз тут / Click here to add release
Рекомендованные обменники / Recommended file shares

> Iron Mountain - Iron Mountain (2019), Stoner/Doom Metal
post Jan 12 2019, 16:59:20
Post #1

Правь статус, ####!111
**************
Group: Металариец
Posts: 15,694
Releases: 10659
From: Г.Харьков
On Forums: 6 years 8 months
Thanks: 177315 time(s)
Unknown




*Artist: Iron Mountain
*Album: Iron Mountain
*Year: 2019
*Genre: Stoner/Doom Metal
*Country: United States
*Format: mp3@CBR320kbps
*Size: 144MB

Tracklist:
1. Locust 05:16
2. Spider Queen 07:46
3. Hellbound Heart 05:13
4. Ghoul 06:24
5. Solitude's Last Stand 11:59
6. Keeper of Coffins 07:38
7. Black Sky, Iron Mountain 07:08
8. Moonlight Ritual 11:43
******************************
Total playing time: 1:03:07




Extended info
Mike Bass, Vocals
Eric Drums
Urban Guitars, Vocals


Technical info

Input File: 05 - Solitude\'s Last Stand.mp3
Channels : 2
Sample Rate : 44100
Precision : 16-bit
Duration : 00:11:58.41 = 31681749 samples = 53880.5 CDDA sectors
File Size : 28.7M
Bit Rate : 320k
Sample Encoding: MPEG audio (layer I, II or III)
Comments :
Title=Solitude's Last Stand
Artist=Iron Mountain
Album=Iron Mountain
Tracknumber=5
Year=2019
Genre=Metal



Register


Go to the top of the page
  Insert nick Quick quote
+Quote Post
 
Start new topic
Replies (1 - 1)
post Jan 12 2019, 19:26:45
Post #2

Правь статус, ####!111
**************
Group: Металариец
Posts: 15,694
Releases: 10659
From: Г.Харьков
On Forums: 6 years 8 months
Thanks: 177315 time(s)
Unknown


Cloud Mail 320
Register


Thanks:
Go to the top of the page
  Insert nick Quick quote
+Quote Post

Reply to this topicStart new topic
2 User(s) are reading this topic (2 Guests and 0 Anonymous Users)
0 Members:

 



- Lo-Fi Version Support form
Copyrights and abuse reports form
Time is now: 19th January 2019 - 11:53:02