X   Site Message
(Message will auto close in 2 seconds)

Welcome Guest ( Log In | Register )

> Releases Upload / Добавление релизов

Добавить релиз тут / Click here to add release
Рекомендованные обменники / Recommended file shares

> Acathexis - Acathexis (2018), Black Metal
post Dec 26 2018, 15:00:29
Post #1

Восемь Литров
********
Group: Металариец
Posts: 898
Releases: 752
From: Новороссийск
On Forums: 7 years 9 months
Thanks: 12954 time(s)
Russian Federation




*Artist: Acathexis
*Album: Acathexis
*Year: 2018
*Genre: Black Metal
*Country: International
*Format: mp3@CBR320kbps
*Size: 91MB

Tracklist:
01. Immurement 09:36
02. Life Only Festers 09:21
03. Veins Hollowed 10:37
04. Stillborn // Isolate 10:07
******************************
Total playing time: 39:41




Extended info
Deha (Maladie, Yhdarl, Imber Luminis) - Songwriting, guitars
Dany Tee (Downfall of Nur, Seelenmord, In Element) - Vocals
Jacob Buczarski (Mare Cognitum) - Drums


Technical info

Input File: 01 Immurement.mp3
Channels : 2
Sample Rate : 44100
Precision : 16-bit
Duration : 00:09:36.09 = 25405437 samples = 43206.5 CDDA sectors
File Size : 23.0M
Bit Rate : 320k
Sample Encoding: MPEG audio (layer I, II or III)
Comments :
Title=Immurement
Artist=Acathexis
Album=Acathexis
Tracknumber=01
Year=2018
Genre=Black Metal



Register

Register


Go to the top of the page
  Insert nick Quick quote
+Quote Post
 
Start new topic
Replies (1 - 4)
post Dec 26 2018, 22:33:39
Post #2

Шесть Литров
******
Group: Металариец
Posts: 683
Releases: 0
On Forums: 11 years 4 months
Thanks: 255 time(s)
Belarus


звук порадовал 20.gif
Go to the top of the page
  Insert nick Quick quote
+Quote Post
post Dec 29 2018, 12:01:13
Post #3

Правь статус, ####!111
**************
Group: Металариец
Posts: 2,114
Releases: 0
From: Dnipro
On Forums: 10 years 7 months
Thanks: 537 time(s)
Ukraine


ЦИТАТА(gena @ Dec 26 2018, 23:33:39) *
звук порадовал 20.gif
Да и музыка не плоха.
Go to the top of the page
  Insert nick Quick quote
+Quote Post
post Feb 11 2019, 18:19:26
Post #4

Full-of-Hate
**************
Group: Металариец
Posts: 2,580
Releases: 0
From: Moscow
On Forums: 9 years 7 months
Thanks: 1852 time(s)
Russian Federation


Многостаночные интернациональные интернет бойцы. Сумбурная муть, надуманная, перегруженная какими-то лишними ходами и звучащая как черти знает что. Студийный эксперимент оказался сущим гоуном.
Go to the top of the page
  Insert nick Quick quote
+Quote Post
post Feb 17 2019, 19:16:11
Post #5

Маньяк
**********
Group: Металариец
Posts: 1,051
Releases: 0
From: Canada
On Forums: 6 years 3 months
Thanks: 619 time(s)
Canada


Clic Bandcamp link above.
Clic Buy Digital Album, Name your price.
Enter 0, download 320kbps, flac, etc.
Go to the top of the page
  Insert nick Quick quote
+Quote Post

Reply to this topicStart new topic
2 User(s) are reading this topic (2 Guests and 0 Anonymous Users)
0 Members:

 



- Lo-Fi Version Support form
Copyrights and abuse reports form
Time is now: 19th February 2019 - 12:39:29