X   Site Message
(Message will auto close in 2 seconds)

Welcome Guest ( Log In | Register )

> И неформату есть предел.

Рэп/хип-хоп/шансон/поп удаляются. Для них есть свои порталы.

> Uratsakidogi - Black Hop (2018), Experimental Black Metal/Hip-Hop/Pazor-Metal (D11)
post Oct 7 2018, 00:20:13
Post #1

Аннигилятор пивА
Group Icon
Group: V.I.P
Posts: 51,476
Releases: 16166
From: Koenigsberg - TILZIT
On Forums: 12 years 7 months
Thanks: 351596 time(s)
Russian Federation




*Artist: Uratsakidogi
*Album: Black Hop
*Year: 2018
*Genre: Experimental Black Metal/Hip-Hop/Pazor-Metal
*Country: Russian Federation
*Format: mp3@CBR320kbps
*Size: 115MB

Tracklist:
1. Into The Ghettomist (Intro)
2. Black Hop III (Black Hop Beat-молот)
3. Black Hop VI (Valhallala) Ragnarokk Skit (Outro)
4. Black Hop II (Black Hop На Районе)
5. Black Hop IV (Оцепеневшим В Северной Бездне) Frost Bitter Disco (Outro)
6. Black Hop V (КМС-ы Одина)
7. Black Hop VII (Чувствуешь) (Feat. Алексей Румянцев ППР)
8. Black Hop I (Гитары Чёрных Металлистов)
9. Black Hop VIII (Old School Darkness)
******************************
Total playing time: 50:23



Extended info
Тьма сгущается!

История музыкально-мистического ордена URATSAKIDOGI берет начало в лихом 97-ом. Более чем двадцатилетний путь экспериментов с самыми различными музыкальными жанрами и направлениями привёл группу к скрещиванию таких взаимоисключающих музыкально-культурных явлений, как Hip-Hop и Black Metal.
Первые результаты этого синтеза получились весьма впечатляющими и были опубликованы на релизах музыкально-мистического ордена - «Падшие Берёзы»(2016) и “Blackchörny”(2017). Воодушевлённые успехом URATSAKIDOGI продолжили работать в этом направлении. Итогом работы стал альбом с коротким и ёмким названием - “Black Hop”, который будет выпущен осенью 2018.
Альбом является весьма новаторским и революционным как для самого ордена (поскольку столь стилистически единообразных и концептуальных релизов у URATSAKIDOGI ещё никогда не было), так и для современной музыки в целом. Ибо никто прежде не создавал на стыке Hip Hop и Black Metal ничего подобного или, во всяком случае, столь же убедительного!


Technical info

Input File: 09 - Black Hop VIII (Old School Darkness).mp3
Channels : 2
Sample Rate : 44100
Precision : 16-bit
Duration : 00:04:43.94 = 12521886 samples = 21295.7 CDDA sectors
File Size : 11.4M
Bit Rate : 320k
Sample Encoding: MPEG audio (layer I, II or III)
Comments :
Title=Black Hop VIII (Old School Darkness)
Artist=Uratsakidogi
Album=Black Hop
Tracknumber=09
Year=2018
Genre=Blackened Hip-Hop | Pazor-Metal



Register


Go to the top of the page
  Insert nick Quick quote
+Quote Post
5 Pages V  « < 3 4 5  
Start new topic
Replies (120 - 126)
post Nov 30 2018, 14:34:00
Post #121

Правь статус, ####!111
**************
Group: Металариец
Posts: 36,460
Releases: 537
On Forums: 9 years 7 months
Thanks: 28201 time(s)
Russian Federation


ЦИТАТА(Shub @ Nov 28 2018, 18:36:12) *
Но кто это будет слушать именно в качестве музыки? Думаю, что никто


Ну Олег же видишь, не один и не два раза гоняет, а кругами 1488.gif

Да и без него тут находятся любители.
Go to the top of the page
  Insert nick Quick quote
+Quote Post
post Dec 4 2018, 15:09:53
Post #122

Правь статус, ####!111
**************
Group: Металариец
Posts: 36,460
Releases: 537
On Forums: 9 years 7 months
Thanks: 28201 time(s)
Russian Federation


Go to the top of the page
  Insert nick Quick quote
+Quote Post
post Dec 4 2018, 15:34:54
Post #123

напряжный чувак (с)
***********
Group: Металариец
Posts: 1,976
Releases: 24
From: Киев
On Forums: 11 years 11 months
Thanks: 2579 time(s)
Ukraine


Боян, который миллион раз постили уже.
Go to the top of the page
  Insert nick Quick quote
+Quote Post
post Dec 22 2018, 17:39:01
Post #124

brutalcesar
**************
Group: Металариец
Posts: 17,638
Releases: 67
From: Рязань
On Forums: 10 years 1 day
Thanks: 8940 time(s)
Russian Federation


Да, оригинально. И смешно. Первый заход был на ура! Второй раз прошёл куда как ровнее, и третьего уже и не надо. Как и любая шутка - интересно сначала, потом уже знаешь, что там. Ну, и относиться к этому серьёзно, как к музыке я точно не могу - хип-хоп совсем не моя тема, даже в качестве шутки.
Go to the top of the page
  Insert nick Quick quote
+Quote Post
post Dec 22 2018, 18:10:02
Post #125

Маньяк
**********
Group: Металариец
Posts: 1,200
Releases: 116
On Forums: 9 years 5 months
Thanks: 923 time(s)
Kazakhstan


На разок прогнать норм, а так шифтдел. Black Hop На Районе надоел еще с той поры, когда каждый умник норовил ввернуть этот клип в любой тру-нетру холивар, думая, что он первый додумался до такого искрометного вброса. Впрочем, та пора еще продолжается
Пойду лучше заценю отцов
Go to the top of the page
  Insert nick Quick quote
+Quote Post
post Dec 23 2018, 06:27:04
Post #126

Четыре Литра
****
Group: Металариец
Posts: 392
Releases: 1
On Forums: 1 year 7 months
Thanks: 154 time(s)
Russian Federation


да сколько еще можно этот сблев обсуждать
Go to the top of the page
  Insert nick Quick quote
+Quote Post
post Jan 12 2019, 22:01:53
Post #127

Попсовик от брутала
**************
Group: Металариец
Posts: 6,472
Releases: 62
From: Минск
On Forums: 10 years 1 month
Thanks: 5370 time(s)
Belarus


Сходили с пацыками на канцык сабжа. Впечатления во многом подобны прослушиванию альбома: немного занадоедает, но не слишком. А так вполне бодрячком.
Go to the top of the page
  Insert nick Quick quote
+Quote Post

5 Pages V  « < 3 4 5
Reply to this topicStart new topic
2 User(s) are reading this topic (2 Guests and 0 Anonymous Users)
0 Members:

 



- Lo-Fi Version Support form
Copyrights and abuse reports form
Time is now: 19th January 2019 - 12:01:42