X   Site Message
(Message will auto close in 2 seconds)

Welcome Guest ( Log In | Register )

> Releases Upload / Добавление релизов

Добавить релиз тут / Click here to add release
Рекомендованные обменники / Recommended file shares

> Religious Observance - Utter Discomfort (2018), Sludge/Noise/Doom Metal
post Dec 6 2018, 17:46:34
Post #1

Правь статус, ####!111
**************
Group: Металариец
Posts: 15,322
Releases: 10460
From: Г.Харьков
On Forums: 6 years 7 months
Thanks: 173453 time(s)
Unknown




*Artist: Religious Observance
*Album: Utter Discomfort
*Year: 2018
*Genre: Sludge/Noise/Doom Metal
*Country: Australia
*Format: mp3@CBR320kbps
*Size: 92MB

Tracklist:
1. Wedding Trough 07:52
2. Seppuku 09:57
3. In Ano 03:03
4. Sink 12:15
5. Utter Discomfort 06:56
******************************
Total playing time: 40:03




Extended info
Gnome Lord Drums
Gooch Guitars
X Noise
The Void Bass, Vocals
Filth Bucket Guitars


Technical info

Input File: 02 Seppuku.mp3
Channels : 2
Sample Rate : 44100
Precision : 16-bit
Duration : 00:09:57.82 = 26363950 samples = 44836.6 CDDA sectors
File Size : 24.0M
Bit Rate : 321k
Sample Encoding: MPEG audio (layer I, II or III)
Comments :
Title=Seppuku
Artist=Religious Observance
Album=Utter Discomfort
Tracknumber=2
Year=2018



Register


Go to the top of the page
  Insert nick Quick quote
+Quote Post
 
Start new topic
Replies (1 - 3)
post Dec 6 2018, 18:18:45
Post #2

Правь статус, ####!111
**************
Group: Металариец
Posts: 35,458
Releases: 528
On Forums: 9 years 6 months
Thanks: 27504 time(s)
Russian Federation


Можно дополнительный обменник пожалуйста?
Go to the top of the page
  Insert nick Quick quote
+Quote Post
post Dec 6 2018, 18:22:11
Post #3

Правь статус, ####!111
**************
Group: Металариец
Posts: 15,322
Releases: 10460
From: Г.Харьков
On Forums: 6 years 7 months
Thanks: 173453 time(s)
Unknown


Cloud Mail 320
Register


Thanks:
Go to the top of the page
  Insert nick Quick quote
+Quote Post
post Dec 6 2018, 20:33:40
Post #4

Правь статус, ####!111
**************
Group: Металариец
Posts: 35,458
Releases: 528
On Forums: 9 years 6 months
Thanks: 27504 time(s)
Russian Federation


Самаре выражаю большое спасибо pray.gifза правильный релиз и шо самое важное - правильнейшие тэги ибо без них прошел бы мимо. Это то самое шо и надо.

Грязный, дикий, больной, блюзанутый по самую макушку сырющщий сладж дум. Очень велико влияние несравненных Dopethrone, шо особенно лепо. Очень в тему пришлись и атмосферные наговорные интерлюдии, отлично дополняют и без того мрачную и беспросветную атмосферу этого релиза.

Мааалюсенький минус - третий трэк - In Ano - нойзовое шуршание показалось лишним в контексте релиза.

Безусловно топовый релиз в своей нише. Сладж, который нужен и приятственен всегда. pray.gif


Thanks:
Go to the top of the page
  Insert nick Quick quote
+Quote Post

Reply to this topicStart new topic
2 User(s) are reading this topic (2 Guests and 0 Anonymous Users)
0 Members:

 



- Lo-Fi Version Support form
Copyrights and abuse reports form
Time is now: 13th December 2018 - 17:08:15