X   Site Message
(Message will auto close in 2 seconds)

Welcome Guest ( Log In | Register )

> Releases Upload / Добавление релизов

Добавить релиз тут / Click here to add release
Рекомендованные обменники / Recommended file shares

> Refusal - Epitome Of Void (2019), Death Metal (D6)
post Jan 10 2019, 12:03:09
Post #1

Serial Uploader
Group Icon
Group: V.I.P
Posts: 33,571
Releases: 31834
From: Lithuania
On Forums: 10 years 7 months
Thanks: 363423 time(s)
Lithuania




*Artist: Refusal
*Album: Epitome Of Void
*Year: 2019
*Genre: Death Metal
*Country: Finland
*Format: mp3@CBR320kbps
*Size: 77MB

Tracklist:
01. Suffocate 02:20
02. Hectic 02:51
03. Disregard 03:13
04. Disgust 03:27
05. Slaves 04:33
06. Exploit 01:48
07. Bound 04:14
08. Futile 04:10
09. Void 05:19
******************************
Total playing time: 31:55




Technical info

Input File: 02 Hectic.mp3
Channels : 2
Sample Rate : 44100
Precision : 16-bit
Duration : 00:02:51.69 = 7571353 samples = 12876.5 CDDA sectors
File Size : 7.32M
Bit Rate : 341k
Sample Encoding: MPEG audio (layer I, II or III)
Comments :
Title=Hectic
Artist=Refusal
Album=Epitome of Void
Tracknumber=2/9
Year=2019
Genre=Death Metal
Discnumber=1/1



Register


Go to the top of the page
  Insert nick Quick quote
+Quote Post
 
Start new topic
Replies (1 - 3)
post Jan 10 2019, 12:38:35
Post #2

Правь статус, ####!111
**************
Group: Металариец
Posts: 15,694
Releases: 10659
From: Г.Харьков
On Forums: 6 years 8 months
Thanks: 177305 time(s)
Unknown


Mega 320
Register

Register



Thanks:
(1) Foneg,
Go to the top of the page
  Insert nick Quick quote
+Quote Post
post Jan 10 2019, 14:31:50
Post #3

hearer & reader
**************
Group: Металариец
Posts: 7,311
Releases: 93
From: Moscow
On Forums: 11 years 4 months
Thanks: 6940 time(s)
Russian Federation


Грайнд потерялся.
Go to the top of the page
  Insert nick Quick quote
+Quote Post
post Jan 11 2019, 13:49:14
Post #4

Мегаманьяк
***********
Group: Металариец
Posts: 1,979
Releases: 0
From: Dnipro
On Forums: 10 years 6 months
Thanks: 505 time(s)
Ukraine


Чёт как то не очень. 13.gif
Go to the top of the page
  Insert nick Quick quote
+Quote Post

Reply to this topicStart new topic
2 User(s) are reading this topic (2 Guests and 0 Anonymous Users)
0 Members:

 



- Lo-Fi Version Support form
Copyrights and abuse reports form
Time is now: 19th January 2019 - 10:14:28