X   Site Message
(Message will auto close in 2 seconds)

Welcome Guest ( Log In | Register )

> Releases Upload / Добавление релизов

Добавить релиз тут / Click here to add release
Рекомендованные обменники / Recommended file shares

> The Black Court - Red - Phantom Delusive (2019), Melodic Death/Black Metal
post Jan 10 2019, 13:02:28
Post #1

Serial Uploader
Group Icon
Group: V.I.P
Posts: 33,571
Releases: 31834
From: Lithuania
On Forums: 10 years 7 months
Thanks: 363423 time(s)
Lithuania




*Artist: The Black Court
*Album: Red - Phantom Delusive
*Year: 2019
*Genre: Melodic Death/Black Metal
*Country: Germany
*Format: mp3@CBR320kbps
*Size: 103MB

Tracklist:
01. ...Of Bliss and Ferocity
02. Distrust
03. The Deceptive Hold
04. Scorched Earth
05. Blind Preachers
06. The Maze
07. My Endless Road
08. Edge of the World
******************************
Total playing time: 44:09




Technical info

Input File: 02 Distrust.mp3
Channels : 2
Sample Rate : 44100
Precision : 16-bit
Duration : 00:05:16.07 = 13938819 samples = 23705.5 CDDA sectors
File Size : 12.9M
Bit Rate : 327k
Sample Encoding: MPEG audio (layer I, II or III)
Comments :
Title=Distrust
Artist=The Black Court
Album=Red - Phantom Delusive
Tracknumber=2/8
Year=2019
Genre=Metal
Discnumber=1/1



Register


Go to the top of the page
  Insert nick Quick quote
+Quote Post
 
Start new topic
Replies (1 - 4)
post Jan 10 2019, 13:15:50
Post #2

Маньяк
**********
Group: Металариец
Posts: 1,037
Releases: 0
On Forums: 7 years 8 months
Thanks: 446 time(s)
Unknown




Thanks:
Go to the top of the page
  Insert nick Quick quote
+Quote Post
post Jan 10 2019, 14:14:13
Post #3

hearer & reader
**************
Group: Металариец
Posts: 7,311
Releases: 93
From: Moscow
On Forums: 11 years 4 months
Thanks: 6939 time(s)
Russian Federation



Вроде, дело хорошее.
Go to the top of the page
  Insert nick Quick quote
+Quote Post
post Jan 11 2019, 13:40:56
Post #4

Мегаманьяк
***********
Group: Металариец
Posts: 1,979
Releases: 0
From: Dnipro
On Forums: 10 years 6 months
Thanks: 505 time(s)
Ukraine


Black Metal - не услышал, по сути третьесортный mdm.
Go to the top of the page
  Insert nick Quick quote
+Quote Post
post Jan 15 2019, 17:48:21
Post #5

Ъ
**************
Group: Металариец
Posts: 9,337
Releases: 9
On Forums: 10 years 1 week
Thanks: 1794 time(s)
Sweden


ЦИТАТА(isvili @ Jan 11 2019, 19:40:56) *
третьесортный mdm.


dooo.gif
Go to the top of the page
  Insert nick Quick quote
+Quote Post

Reply to this topicStart new topic
2 User(s) are reading this topic (2 Guests and 0 Anonymous Users)
0 Members:

 



- Lo-Fi Version Support form
Copyrights and abuse reports form
Time is now: 19th January 2019 - 09:58:38