X   Site Message
(Message will auto close in 2 seconds)

Welcome Guest ( Log In | Register )

> И неформату есть предел.

Рэп/хип-хоп/шансон/поп удаляются. Для них есть свои порталы.

> Depeche Mode - Delta Machine (2013), Synth-Pop
post Mar 18 2013, 09:30:42
Post #1

Герберт Уэст
**************
Group: Металариец
Posts: 2,086
Releases: 60
From: Поморье
On Forums: 9 years 8 months
Thanks: 4278 time(s)
Russian Federation




*Artist: Depeche Mode
*Album: Delta Machine
*Year: 2013
*Genre: Synth-Pop
*Country: United Kingdom
*Format: mp3@CBR320kbps
*Size: 132MB

Tracklist:
01. Welcome To My World (4:56)
02. Angel (3:57)
03. Heaven (4:05)
04. Secret To The End (5:12)
05. My Little Universe (4:25)
06. Slow (3:45)
07. Broken (3:58)
08. The Child Inside (4:16)
09. Soft Touch / Raw Nerve (3:26)
10. Should Be Higher (5:04)
11. Alone (4:29)
12. Soothe My Soul (5:22)
13. Goodbye (5:04)
******************************
Total playing time: 58:05



Extended info
Альбом - шикарнейший! По ощущениям - это лучшее их творение с времен Ultra!


Input File: 01. Welcome To My World.mp3
Channels : 2
Sample Rate : 44100
Precision : 16-bit
Duration : 00:04:56.60 = 13080236 samples = 22245.3 CDDA sectors
File Size : 11.9M
Bit Rate : 320k
Sample Encoding: MPEG audio (layer I, II or III)
Comments :
Title=Welcome To My World
Artist=Depeche Mode
Album=Delta Machine
Tracknumber=01
Year=2013
Genre=Synth-Pop



Register


Go to the top of the page
  Insert nick Quick quote
+Quote Post
3 Pages V  < 1 2 3  
Start new topic
Replies (60 - 61)
post Jan 5 2014, 20:54:07
Post #61

ПОЛИТИК
**************
Group: Металариец
Posts: 5,610
Releases: 4
From: P T
On Forums: 12 years 3 months
Thanks: 349 time(s)
Canada


ЦИТАТА(Old Vyaine @ Dec 2 2013, 22:20:58) *
Тащемта, потора неудачных альбома совсем не повод хоронить группу, ящетаю.



это мы наверняка поймём в ближ.будующем 25.gif
Go to the top of the page
  Insert nick Quick quote
+Quote Post
post Feb 11 2019, 18:09:48
Post #62

Правь статус, ####!111
**************
Group: Металариец
Posts: 37,291
Releases: 547
On Forums: 9 years 8 months
Thanks: 28697 time(s)
Russian Federation


@320

Register


Thanks:
(1) Occultas,
Go to the top of the page
  Insert nick Quick quote
+Quote Post

3 Pages V  < 1 2 3
Reply to this topicStart new topic
2 User(s) are reading this topic (2 Guests and 0 Anonymous Users)
0 Members:

 



- Lo-Fi Version Support form
Copyrights and abuse reports form
Time is now: 19th February 2019 - 12:41:44