X   Site Message
(Message will auto close in 2 seconds)

Welcome Guest ( Log In | Register )

> Releases Upload / Добавление релизов

Добавить релиз тут / Click here to add release
Рекомендованные обменники / Recommended file shares

 
Reply to this topicStart new topic
> Torturepig - Big Scrotes, Slit Throats [ep] (2019), Goregrind (D7)
post Feb 12 2019, 13:06:49
Post #1

Serial Uploader
Group Icon
Group: V.I.P
Posts: 33,909
Releases: 32149
From: Lithuania
On Forums: 10 years 8 months
Thanks: 366732 time(s)
Lithuania




*Artist: Torturepig
*Album: Big Scrotes, Slit Throats [ep]
*Year: 2019
*Genre: Goregrind
*Country: United States
*Format: mp3@CBR320kbps
*Size: 11MB

Tracklist:
01. Smeared In Shit And Fucked To Death 01:28
02. Satan Pussy 01:23
03. Drowned In Fermented Piss 01:17
04. All Meth'd Up And Ready To Fuck 00:56
******************************
Total playing time: 5:04



Technical info

Input File: 02. Satan Pussy.mp3
Channels : 2
Sample Rate : 44100
Precision : 16-bit
Duration : 00:01:23.07 = 3663519 samples = 6230.47 CDDA sectors
File Size : 3.40M
Bit Rate : 327k
Sample Encoding: MPEG audio (layer I, II or III)
Comments :
Title=Satan Pussy
Artist=TORTUREPIG
Album=BIG SCROTES, SLIT THROATS
Tracknumber=2
Year=2019



Register


Go to the top of the page
  Insert nick Quick quote
+Quote Post

Reply to this topicStart new topic
2 User(s) are reading this topic (2 Guests and 0 Anonymous Users)
0 Members:

 



- Lo-Fi Version Support form
Copyrights and abuse reports form
Time is now: 19th February 2019 - 06:27:58