X   Site Message
(Message will auto close in 2 seconds)

Welcome Guest ( Log In | Register )

> Releases Upload / Добавление релизов

Добавить релиз тут / Click here to add release
Рекомендованные обменники / Recommended file shares

> Goats Of Doom - Rukous (2018), Black Metal
post Dec 6 2018, 02:47:16
Post #1

Правь статус, ####!111
**************
Group: Металариец
Posts: 15,322
Releases: 10460
From: Г.Харьков
On Forums: 6 years 7 months
Thanks: 173454 time(s)
Unknown




*Artist: Goats Of Doom
*Album: Rukous
*Year: 2018
*Genre: Black Metal
*Country: Finland
*Format: mp3@CBR320kbps
*Size: 96MB

Tracklist:
1. Veressä on Perustani Juuret 06:19
2. Tuhkasta Valettu 03:47
3. Law ov Liberty 05:41
4. Sokeus Johtaa Kansaa 04:31
5. World Denied Lucifer's Light 07:31
6. Rukous 04:16
7. Riivaaja 08:57
******************************
Total playing time: 41:02




Extended info
Inasnum Drums, Vocals (clean)
Scaregod Vocals (lead), Guitars, Bass, Acoustics



Technical info

Input File: 03 Law ov Liberty.mp3
Channels : 2
Sample Rate : 44100
Precision : 16-bit
Duration : 00:05:42.10 = 15086390 samples = 25657.1 CDDA sectors
File Size : 14.1M
Bit Rate : 330k
Sample Encoding: MPEG audio (layer I, II or III)
Comments :
Title=Law ov Liberty
Artist=Goats of Doom
Album=Rukous
Tracknumber=3
Year=2018
Genre=Black Metal



Register


Go to the top of the page
  Insert nick Quick quote
+Quote Post
 
Start new topic
Replies (1 - 2)
post Dec 6 2018, 18:13:52
Post #2

Правь статус, ####!111
**************
Group: Металариец
Posts: 15,322
Releases: 10460
From: Г.Харьков
On Forums: 6 years 7 months
Thanks: 173454 time(s)
Unknown


Cloud Mail 320
Register


Thanks:
Go to the top of the page
  Insert nick Quick quote
+Quote Post
post Dec 8 2018, 18:23:20
Post #3

Мегаманьяк
***********
Group: Металариец
Posts: 1,759
Releases: 0
From: Dnipro
On Forums: 10 years 5 months
Thanks: 463 time(s)
Ukraine


Эти чернушники дерьма не делают true_black.gif 25.gif
Go to the top of the page
  Insert nick Quick quote
+Quote Post

Reply to this topicStart new topic
2 User(s) are reading this topic (2 Guests and 0 Anonymous Users)
0 Members:

 



- Lo-Fi Version Support form
Copyrights and abuse reports form
Time is now: 13th December 2018 - 17:36:49